<?xml version="1.0" standalone="no"?>
<!DOCTYPE svg PUBLIC "-//W3C//DTD SVG 1.1//EN" "http://www.w3.org/Graphics/SVG/1.1/DTD/svg11.dtd">
<svg xmlns="http://www.w3.org/2000/svg">
<defs >
<font id="Nunito" horiz-adv-x="560" ><font-face
    font-family="Nunito ExtraLight"
    units-per-em="1000"
    panose-1="0 0 0 0 0 0 0 0 0 0"
    ascent="1011"
    descent="-353"
    alphabetic="0" />
<glyph unicode=" " horiz-adv-x="258" />
<glyph unicode="!" horiz-adv-x="228" d="M115 179Q103 179 96 187T87 211L67 659Q66 683 78 697T115 712Q138 712 150 698T161 659L141 211Q141 195 134 187T115 179ZM115 -4Q90 -4 75 11T60 51Q60 75 75 90T115 106Q140 106 154 91T169 51Q169 27 155 12T115 -4Z" />
<glyph unicode="&quot;" horiz-adv-x="392" d="M111 421Q100 421 92 429T81 453L67 663Q65 684 77 698T111 712Q125 712 135 706T150 688T155 663L141 453Q140 438 132 430T111 421ZM282 421Q271 421 263 429T252 453L238 663Q236 684 248 698T282 712Q296 712
306 706T321 688T326 663L312 453Q311 438 303 430T282 421Z" />
<glyph unicode="#" horiz-adv-x="600" d="M120 -7Q104 -7 98 3T95 32L125 189L154 182H69Q58 182 50 185T37 195T33 211Q33 226 42 233T69 241H165L133 233L182 482L206 472H89Q78 472 70 475T57 486T53 502Q53 517 62 524T89 531H216L189 524L219 679Q223 697
232 704T257 712Q272 712 278 702T281 673L254 531H413L441 679Q445 697 455 704T479 712Q494 712 500 702T504 673L475 524L451 531H531Q543 531 551 528T563 518T567 502Q567 488 558 480T531 472H440L467 482L419 233L394 241H511Q523 241 531 238T543 228T547
211Q547 197 538 190T511 182H384L411 189L379 26Q376 8 367 1T342 -7Q327 -7 320 3T316 32L345 182H187L157 26Q154 8 145 1T120 -7ZM198 241H356L402 472H243L198 241Z" />
<glyph unicode="$" horiz-adv-x="600" d="M310 -122Q295 -122 286 -112T276 -88V12L294 -5Q224 -4 166 14T68 62Q57 70 53 81T50 104T60 123T79 132T104 125Q137 102 184 85T301 68Q359 68 396 83T451 125T469 188Q469 216 456 237T415 273T340 298L240 319Q149
339 105 384T61 504Q61 562 89 607T169 679T288 709L276 695V793Q276 807 285 817T310 827Q324 827 334 817T344 793V695L331 709Q378 708 430 689T520 635Q530 626 532 616T532 596T521 580T502 573T477 581Q444 608 404 622T306 637Q231 637 187 601T142 506Q142
460 170 433T261 392L362 370Q460 349 506 307T552 192Q552 135 523 93T444 26T328 -4L344 13V-88Q344 -102 335 -112T310 -122Z" />
<glyph unicode="%" horiz-adv-x="930" d="M300 -1Q293 -14 283 -18T263 -21T246 -11T238 8T243 32L629 704Q636 717 646 721T666 724T683 713T691 694T686 671L300 -1ZM226 282Q146 282 101 339T56 498Q56 566 76 614T135 687T226 713Q305 713 350 657T396 498Q396
430 376 382T317 308T226 282ZM226 341Q257 341 279 359T314 412T326 498Q326 576 299 615T226 654Q195 654 173 637T138 585T126 498Q126 420 152 381T226 341ZM704 -9Q625 -9 580 48T534 207Q534 275 554 323T613 396T704 422Q784 422 829 366T874 207Q874 139
854 91T796 17T704 -9ZM704 50Q736 50 758 67T792 120T804 207Q804 285 778 324T704 363Q673 363 651 346T617 294T605 207Q605 128 631 89T704 50Z" />
<glyph unicode="&amp;" horiz-adv-x="693" d="M287 -9Q217 -9 166 13T89 76T62 169Q62 203 71 231T98 285T145 335T210 384L242 405L231 388Q183 440 164 478T144 558Q144 604 165 639T225 694T317 714Q387 714 431 676T475 571Q475 535 461 504T414 441T322 374L324
395L511 185H493Q507 209 517 240T535 307T546 385Q548 402 557 411T583 420Q600 420 609 410T616 381Q612 331 602 286T576 203T540 132L539 156L638 47Q651 34 651 22T641 1T615 -7Q601 -7 592 -2T571 15L495 101H516Q474 49 415 20T287 -9ZM291 58Q348 58 392
82T470 152L469 127L257 359L289 356L258 336Q215 308 190 284T153 233T142 175Q142 120 180 89T291 58ZM317 651Q274 651 247 626T220 560Q220 538 226 520T250 479T297 421L276 420Q324 451 352 474T392 520T404 567Q404 606 380 628T317 651Z" />
<glyph unicode="&apos;" horiz-adv-x="221" d="M111 421Q100 421 92 429T81 453L67 663Q65 684 77 698T111 712Q125 712 135 706T150 688T155 663L141 453Q140 438 132 430T111 421Z" />
<glyph unicode="(" horiz-adv-x="317" d="M210 -169Q154 -66 128 42T102 263Q102 338 113 411T149 555T210 695Q217 708 229 711T253 710T270 693T268 661Q242 595 224 529T197 397T188 263Q188 195 197 129T225 -2T268 -135Q276 -154 271 -166T254 -183T230 -185T210
-169Z" />
<glyph unicode=")" horiz-adv-x="317" d="M108 -169Q100 -182 88 -185T64 -183T47 -166T49 -135Q76 -68 93 -3T120 129T129 263Q129 331 120 397T93 528T49 661Q42 680 47 692T64 709T87 711T108 695Q163 593 189 484T215 263Q215 188 204 115T169 -30T108 -169Z" />
<glyph unicode="*" horiz-adv-x="450" d="M128 368Q115 375 114 388T121 416L191 526L202 510L71 505Q53 505 43 512T32 535Q32 549 42 556T71 563L202 558L191 543L122 654Q112 669 114 682T128 702Q140 709 152 703T173 681L230 571H220L277 681Q286 697 298
703T323 702Q335 694 336 681T328 653L259 543L248 558L379 563Q397 564 407 557T418 535Q418 520 408 513T379 505L248 510L259 526L328 416Q338 401 337 389T323 369Q310 361 298 367T277 388L220 498H230L172 388Q164 372 152 366T128 368Z" />
<glyph unicode="+" horiz-adv-x="600" d="M300 33Q284 33 276 42T268 66V256H81Q66 256 58 264T49 287Q49 302 57 310T81 318H268V502Q268 518 276 526T300 535Q316 535 324 527T332 502V318H519Q534 318 542 310T551 287Q551 272 543 264T519 256H332V66Q332
51 324 42T300 33Z" />
<glyph unicode="," horiz-adv-x="228" d="M124 -95Q114 -108 103 -110T84 -106T76 -89T85 -65Q101 -44 107 -23T113 17L117 -4Q91 -4 76 11T60 51Q60 75 74 90T113 106Q139 106 154 89T169 38Q169 17 165 -5T151 -51T124 -95Z" />
<glyph unicode="-" horiz-adv-x="424" d="M100 233Q85 233 75 242T65 266Q65 281 75 290T100 300H325Q339 300 349 291T359 266Q359 252 349 243T325 233H100Z" />
<glyph unicode="." horiz-adv-x="228" d="M115 -4Q90 -4 75 11T60 51Q60 75 75 90T115 106Q140 106 154 91T169 51Q169 27 155 12T115 -4Z" />
<glyph unicode="/" horiz-adv-x="283" d="M55 -34Q50 -47 42 -53T22 -59T3 -54T-10 -38T-10 -15L228 723Q233 736 242 742T261 748T280 743T292 727T292 704L55 -34Z" />
<glyph unicode="0" horiz-adv-x="600" d="M300 -9Q179 -9 116 84T53 353Q53 471 81 551T164 673T300 714Q422 714 484 623T547 354Q547 236 519 155T436 33T300 -9ZM300 62Q384 62 424 133T465 354Q465 504 425 573T300 643Q217 643 176 573T135 354Q135 205 176
134T300 62Z" />
<glyph unicode="1" horiz-adv-x="600" d="M155 0Q137 0 127 9T117 36Q117 53 127 61T155 70H285V637H328L183 541Q170 534 159 535T140 543T129 561T130 583T147 603L285 694Q298 702 310 707T334 712Q348 712 357 704T367 677V70H487Q505 70 515 62T525 36Q525
18 515 9T487 0H155Z" />
<glyph unicode="2" horiz-adv-x="600" d="M129 0Q107 0 97 10T86 39Q86 50 91 60T107 82L331 322Q382 377 404 423T427 518Q427 578 391 609T284 641Q239 641 199 627T122 584Q109 574 99 575T80 583T69 601T69 623T85 643Q124 675 179 694T291 714Q362 714 411
692T485 628T510 524Q510 482 497 442T456 359T384 272L171 47V70H508Q527 70 536 62T546 36Q546 18 537 9T508 0H129Z" />
<glyph unicode="3" horiz-adv-x="600" d="M292 -9Q234 -9 176 8T74 58Q61 67 57 78T55 100T66 118T85 127T111 119Q155 90 199 77T290 64Q341 64 376 79T429 123T447 196Q447 258 406 290T287 322H216Q197 322 187 331T177 358Q177 374 187 383T216 393H280Q326
393 358 409T409 454T427 526Q427 582 391 611T287 641Q242 641 202 628T123 584Q111 575 100 575T81 582T70 600T70 622T87 644Q127 678 181 696T292 714Q360 714 408 693T483 631T509 533Q509 490 493 455T447 394T375 358V369Q448 357 488 310T529 190Q529 129
501 85T419 16T292 -9Z" />
<glyph unicode="4" horiz-adv-x="600" d="M418 -7Q399 -7 388 4T377 35V151H90Q70 151 59 160T47 188Q47 199 52 210T70 240L375 684Q384 698 395 705T421 712Q437 712 448 702T460 670V221H533Q552 221 562 212T572 186Q572 169 562 160T533 151H460V35Q460 15
449 4T418 -7ZM377 221V609H401L121 199V221H377Z" />
<glyph unicode="5" horiz-adv-x="600" d="M315 -9Q258 -9 202 8T99 61Q87 69 83 80T82 102T93 120T112 129T137 121Q178 92 222 78T314 64Q363 64 398 82T452 134T471 213Q471 282 431 326T321 370Q278 370 242 354T176 303Q169 295 160 290T138 284Q121 284 112
293T102 319V667Q102 686 112 695T140 705H480Q499 705 508 696T518 670Q518 653 509 644T480 635H183V354H161Q187 396 233 418T336 441Q403 441 451 413T526 335T553 217Q553 151 524 100T442 20T315 -9Z" />
<glyph unicode="6" horiz-adv-x="600" d="M324 -9Q241 -9 183 31T94 149T64 335Q64 427 83 497T139 615T229 689T349 714Q395 714 443 696T529 645Q540 637 542 626T542 604T532 586T513 579T490 587Q456 616 420 628T347 641Q282 641 237 609T168 513T144 351V258H135Q141
315 168 356T239 420T336 442Q398 442 446 414T521 336T548 220Q548 154 520 102T441 21T324 -9ZM319 61Q363 61 397 80T450 135T469 217Q469 263 450 298T397 353T319 373Q275 373 241 353T188 298T169 217Q169 171 188 136T241 81T319 61Z" />
<glyph unicode="7" horiz-adv-x="600" d="M168 -7Q154 -7 144 0T132 19T137 47L458 670V634H98Q80 634 70 643T60 670Q60 687 70 696T98 705H495Q513 705 524 696T535 670Q535 656 532 646T522 622L214 21Q207 7 196 0T168 -7Z" />
<glyph unicode="8" horiz-adv-x="600" d="M300 -9Q221 -9 165 14T79 81T49 187Q49 236 69 274T125 337T208 367V352Q143 366 105 413T66 526Q66 586 94 627T176 691T300 714Q372 714 424 692T506 628T535 526Q535 483 518 447T468 386T393 353V367Q464 357 507
309T551 187Q551 125 522 81T436 14T300 -9ZM300 59Q385 59 428 92T472 192Q472 258 429 290T300 323Q216 323 172 291T128 192Q128 125 172 92T300 59ZM300 391Q349 391 383 406T437 451T456 519Q456 579 415 612T300 646Q227 646 186 613T145 519Q145 459 186
425T300 391Z" />
<glyph unicode="9" horiz-adv-x="600" d="M251 -9Q206 -9 157 9T71 61Q60 69 58 80T58 101T68 119T87 127T110 119Q144 90 180 77T253 64Q318 64 363 96T432 193T456 354V447H465Q459 391 432 349T361 285T264 263Q202 263 154 291T79 370T52 485Q52 552 80 603T159
684T276 714Q359 714 417 674T506 556T536 370Q536 278 517 208T461 90T371 16T251 -9ZM281 332Q326 332 360 352T413 407T432 489Q432 535 413 570T360 625T281 645Q237 645 204 625T151 570T131 489Q131 443 150 408T203 352T281 332Z" />
<glyph unicode=":" horiz-adv-x="228" d="M115 -4Q90 -4 75 11T60 51Q60 75 75 90T115 106Q140 106 154 91T169 51Q169 27 155 12T115 -4ZM115 380Q90 380 75 396T60 435Q60 460 75 475T115 490Q140 490 154 475T169 435Q169 412 155 396T115 380Z" />
<glyph unicode=";" horiz-adv-x="228" d="M124 -95Q114 -108 103 -110T84 -106T76 -89T85 -65Q101 -44 107 -23T113 17L117 -4Q91 -4 76 11T60 51Q60 75 74 90T113 106Q139 106 154 89T169 38Q169 17 165 -5T151 -51T124 -95ZM115 380Q90 380 75 396T60 435Q60
460 75 475T115 490Q140 490 154 475T169 435Q169 412 155 396T115 380Z" />
<glyph unicode="&lt;" horiz-adv-x="600" d="M512 49L87 242Q54 256 54 287Q54 303 62 314T87 332L512 525Q525 531 534 528T550 518T556 500T553 482T536 467L89 267V307L536 107Q549 101 553 93T557 74T550 57T535 47T512 49Z" />
<glyph unicode="=" horiz-adv-x="600" d="M81 356Q66 356 58 364T49 387Q49 402 57 410T81 418H519Q534 418 542 410T551 387Q551 372 543 364T519 356H81ZM81 157Q66 157 58 165T49 188Q49 203 57 210T81 218H519Q534 218 542 211T551 188Q551 172 543 165T519 157H81Z" />
<glyph unicode="&gt;" horiz-adv-x="600" d="M88 49Q76 44 66 46T51 56T44 74T48 92T64 107L512 307V267L64 467Q53 473 48 481T44 500T50 517T66 528T88 525L514 332Q546 318 546 287Q546 272 538 261T514 242L88 49Z" />
<glyph unicode="?" horiz-adv-x="443" d="M209 180Q196 180 189 188T182 212Q182 247 190 277T217 340T268 409Q293 439 308 462T329 506T336 550Q336 592 306 616T223 641Q177 641 139 628T64 587Q49 577 37 577T16 584T6 602T8 625T28 647Q67 678 120 696T227
714Q284 714 327 695T395 640T419 556Q419 525 410 497T382 439T327 373Q296 341 277 314T249 261T236 207Q235 195 228 188T209 180ZM208 -4Q183 -4 168 11T152 51Q152 75 167 90T208 106Q233 106 247 91T262 51Q262 27 248 12T208 -4Z" />
<glyph unicode="@" horiz-adv-x="946" d="M485 -163Q389 -163 311 -133T177 -45T91 92T61 273Q61 371 92 452T182 591T321 682T498 714Q614 714 701 668T836 538T885 344Q885 257 861 193T795 94T695 59Q635 59 605 93T578 187L597 182Q572 122 526 91T429 59Q352
59 310 107T267 241Q267 314 295 371T372 462T483 495Q537 495 572 468T617 392H606L617 459Q622 491 654 491Q671 491 678 482T683 454L643 227Q641 214 640 202T639 180Q639 147 654 130T699 113Q738 113 766 142T811 223T828 344Q828 439 787 509T671 618T497
657Q386 657 302 609T171 475T124 273Q124 154 168 69T294 -61T485 -107Q558 -107 618 -86T719 -29Q733 -18 745 -19T764 -30T770 -51T755 -75Q709 -115 640 -139T485 -163ZM438 117Q483 117 517 144T572 218T592 325Q592 381 567 409T490 437Q446 437 411 412T356
343T335 241Q335 181 362 149T438 117Z" />
<glyph unicode="A" horiz-adv-x="729" d="M72 -7Q56 -7 47 0T36 20T41 49L316 675Q325 695 337 703T365 712Q380 712 392 704T413 675L689 49Q697 33 696 20T685 0T660 -7Q642 -7 631 2T613 30L539 201L579 180H149L190 201L117 30Q108 11 98 2T72 -7ZM364 609L203
230L179 249H549L527 230L366 609H364Z" />
<glyph unicode="B" horiz-adv-x="676" d="M132 0Q110 0 99 11T87 45V660Q87 682 98 693T132 705H369Q442 705 492 684T570 621T597 521Q597 455 559 411T454 353V367Q529 358 571 313T614 194Q614 100 553 50T381 0H132ZM167 66H373Q453 66 493 98T533 195Q533
261 493 292T373 324H167V66ZM167 390H357Q435 390 475 422T516 514Q516 576 476 607T357 639H167V390Z" />
<glyph unicode="C" horiz-adv-x="673" d="M392 -9Q288 -9 214 35T101 160T61 353Q61 437 83 503T148 616T253 688T392 714Q454 714 510 697T607 645Q620 635 624 623T626 599T614 580T593 572T566 582Q530 611 487 625T394 639Q315 639 260 606T177 508T149 353Q149
262 177 198T260 100T394 66Q443 66 487 80T568 124Q583 134 595 134T615 126T626 108T627 85T611 64Q569 28 513 10T392 -9Z" />
<glyph unicode="D" horiz-adv-x="742" d="M132 0Q110 0 99 11T87 45V660Q87 682 98 693T132 705H325Q496 705 589 615T682 353Q682 267 659 202T589 91T477 23T325 0H132ZM169 70H319Q389 70 440 88T526 141T578 229T595 353Q595 494 526 564T319 635H169V70Z" />
<glyph unicode="E" horiz-adv-x="583" d="M132 0Q110 0 99 11T87 45V660Q87 682 98 693T132 705H504Q521 705 530 696T539 671Q539 654 530 645T504 636H167V392H483Q500 392 509 384T518 358Q518 341 509 332T483 323H167V69H504Q521 69 530 60T539 35Q539 18
530 9T504 0H132Z" />
<glyph unicode="F" horiz-adv-x="548" d="M131 -7Q110 -7 99 4T87 38V660Q87 682 98 693T132 705H495Q512 705 521 696T530 671Q530 654 521 645T495 636H169V390H474Q491 390 500 381T510 356Q510 339 501 330T474 321H169V38Q169 -7 131 -7Z" />
<glyph unicode="G" horiz-adv-x="726" d="M409 -9Q296 -9 219 34T101 158T61 352Q61 436 83 503T149 616T255 688T397 714Q460 714 519 697T624 641Q636 632 639 621T639 599T628 581T609 572T585 579Q544 611 498 625T396 640Q316 640 261 606T177 508T148 352Q148
212 213 138T411 64Q459 64 505 73T592 100L574 53V302H431Q413 302 404 311T395 335Q395 351 404 359T431 367H610Q627 367 636 358T645 332V71Q645 56 640 46T623 31Q581 14 523 3T409 -9Z" />
<glyph unicode="H" horiz-adv-x="761" d="M128 -7Q108 -7 98 4T87 36V669Q87 690 97 701T128 712Q148 712 158 701T169 669V393H592V669Q592 690 602 701T633 712Q653 712 663 701T674 669V36Q674 16 664 5T633 -7Q613 -7 603 4T592 36V322H169V36Q169 16 159 5T128 -7Z" />
<glyph unicode="I" horiz-adv-x="257" d="M128 -7Q108 -7 98 4T87 36V669Q87 690 97 701T128 712Q148 712 158 701T169 669V36Q169 16 159 5T128 -7Z" />
<glyph unicode="J" horiz-adv-x="324" d="M28 -6Q9 -7 -1 4T-12 31Q-12 43 -5 53T19 64L50 66Q101 70 128 101T155 188V670Q155 691 165 701T196 712Q216 712 226 702T237 670V187Q237 130 217 89T158 24T61 -3L28 -6Z" />
<glyph unicode="K" horiz-adv-x="625" d="M128 -7Q108 -7 98 4T87 36V670Q87 691 97 701T128 712Q148 712 158 702T169 670V385H171L497 689Q509 701 521 706T547 712Q566 712 574 703T581 681T567 656L226 340L227 384L583 55Q598 41 599 27T591 3T562 -7Q547
-7 537 -1T513 19L171 332H169V36Q169 16 159 5T128 -7Z" />
<glyph unicode="L" horiz-adv-x="543" d="M129 0Q109 0 98 11T87 43V667Q87 688 97 699T128 710Q148 710 158 699T169 667V72H497Q515 72 525 63T535 36Q535 19 525 10T497 0H129Z" />
<glyph unicode="M" horiz-adv-x="855" d="M127 -7Q109 -7 99 3T89 33V672Q89 692 99 702T127 712Q143 712 152 706T170 684L444 168H414L687 684Q695 699 704 705T730 712Q747 712 757 702T767 672V33Q767 14 758 4T729 -7Q711 -7 701 3T691 33V595H715L465 126Q458
113 451 108T429 102Q415 102 407 108T393 126L140 596H164V33Q164 14 155 4T127 -7Z" />
<glyph unicode="N" horiz-adv-x="740" d="M126 -7Q107 -7 97 3T87 34V670Q87 690 97 701T123 712Q139 712 146 707T164 687L600 106H576V672Q576 691 586 701T615 712Q633 712 642 702T652 672V33Q652 14 644 4T619 -7Q604 -7 595 -1T576 18L141 599H164V34Q164
14 154 4T126 -7Z" />
<glyph unicode="O" horiz-adv-x="767" d="M383 -9Q285 -9 213 35T101 161T61 353Q61 437 83 503T148 616T249 688T383 714Q483 714 555 670T667 546T707 354Q707 270 684 203T619 89T518 17T383 -9ZM383 64Q459 64 511 98T592 197T620 353Q620 490 559 565T383
641Q309 641 257 607T176 509T148 353Q148 217 210 141T383 64Z" />
<glyph unicode="P" horiz-adv-x="633" d="M128 -7Q108 -7 98 4T87 36V663Q87 684 98 694T129 705H366Q479 705 540 650T601 493Q601 393 540 337T366 281H169V36Q169 16 159 5T128 -7ZM169 350H356Q437 350 478 386T520 493Q520 564 479 600T356 637H169V350Z" />
<glyph unicode="Q" horiz-adv-x="767" d="M627 -133Q637 -148 636 -160T626 -181T605 -192T581 -190T559 -169L494 -66Q478 -38 450 -24T383 -9L451 20Q498 20 525 4T580 -57L627 -133ZM383 -9Q285 -9 213 35T101 161T61 353Q61 437 83 503T148 616T249 688T383
714Q483 714 555 670T667 546T707 354Q707 270 684 203T619 89T518 17T383 -9ZM383 64Q459 64 511 98T592 197T620 353Q620 490 559 565T383 641Q309 641 257 607T176 509T148 353Q148 217 210 141T383 64Z" />
<glyph unicode="R" horiz-adv-x="669" d="M128 -7Q108 -7 98 4T87 36V663Q87 684 98 694T129 705H366Q479 705 540 652T601 501Q601 439 574 394T493 325T366 301L376 314H396Q435 314 464 294T517 230L613 51Q621 37 621 24T611 2T585 -7Q568 -7 557 1T538 24L429
226Q406 269 376 283T297 298H169V36Q169 16 159 5T128 -7ZM169 363H354Q436 363 478 397T520 501Q520 568 478 602T354 637H169V363Z" />
<glyph unicode="S" horiz-adv-x="615" d="M315 -9Q268 -9 223 -1T140 22T70 60Q58 69 54 80T51 103T61 123T80 132T104 125Q149 93 200 79T315 64Q405 64 448 97T492 186Q492 231 461 256T355 297L251 318Q157 338 111 383T64 505Q64 552 83 590T136 656T217 699T321
714Q384 714 438 697T537 644Q548 635 552 624T553 602T543 584T524 576T498 584Q458 614 415 627T320 641Q267 641 229 625T169 579T147 508Q147 460 176 432T273 391L377 369Q478 348 526 306T575 190Q575 146 557 109T505 46T423 5T315 -9Z" />
<glyph unicode="T" horiz-adv-x="602" d="M301 -7Q282 -7 271 4T260 36V634H35Q17 634 7 644T-3 670Q-3 687 7 696T35 705H568Q586 705 596 696T606 670Q606 653 596 644T568 634H343V36Q343 16 333 5T301 -7Z" />
<glyph unicode="U" horiz-adv-x="728" d="M365 -9Q295 -9 243 9T154 64T100 155T82 279V670Q82 691 92 701T123 712Q143 712 153 702T164 670V283Q164 173 215 119T365 64Q464 64 514 118T564 283V670Q564 691 575 701T606 712Q625 712 635 702T646 670V279Q646
186 615 121T520 24T365 -9Z" />
<glyph unicode="V" horiz-adv-x="689" d="M345 -7Q326 -7 314 2T295 29L20 658Q13 675 16 686T29 705T54 712Q73 712 82 704T98 679L362 66H330L593 680Q600 695 610 703T638 712Q652 712 661 705T673 686T669 658L394 29Q387 11 376 2T345 -7Z" />
<glyph unicode="W" horiz-adv-x="1101" d="M313 -7Q295 -7 284 2T266 31L45 662Q38 683 48 697T82 712Q99 712 109 704T126 677L333 70H298L509 674Q516 693 526 702T553 712Q569 712 578 703T595 674L803 70H772L981 677Q986 694 996 703T1024 712Q1045 712 1055
698T1057 662L835 31Q828 12 818 3T788 -7Q770 -7 760 2T741 31L540 610H562L359 31Q352 12 342 3T313 -7Z" />
<glyph unicode="X" horiz-adv-x="650" d="M78 -7Q61 -7 51 2T39 24T48 50L290 376V345L62 653Q51 668 52 681T63 703T89 712Q103 712 113 706T134 685L339 404H313L517 685Q527 700 537 706T561 712Q577 712 587 704T599 682T589 653L361 345V376L603 50Q613 37
612 24T600 2T573 -7Q560 -7 550 -1T528 20L309 319H341L122 20Q112 6 101 0T78 -7Z" />
<glyph unicode="Y" horiz-adv-x="596" d="M298 -7Q278 -7 268 4T257 37V365L275 308L24 654Q15 667 15 680T26 703T52 712Q66 712 77 706T97 685L310 391H289L502 685Q513 700 523 706T547 712Q563 712 572 704T581 682T572 653L322 308L339 365V37Q339 -7 298 -7Z" />
<glyph unicode="Z" horiz-adv-x="589" d="M86 0Q70 0 60 6T46 24T45 50T61 80L477 666V634H80Q61 634 51 643T41 670Q41 687 51 696T80 705H514Q530 705 540 699T554 681T555 655T540 625L124 40V71H535Q554 71 564 62T574 36Q574 18 564 9T535 0H86Z" />
<glyph unicode="[" horiz-adv-x="315" d="M145 -180Q130 -180 120 -170T109 -145V670Q109 685 119 695T145 705H281Q296 705 305 696T314 673Q314 660 305 651T281 641H190V-116H281Q296 -116 305 -125T314 -148Q314 -161 305 -170T281 -180H145Z" />
<glyph unicode="\" horiz-adv-x="283" d="M228 -34L-10 704Q-14 717 -10 727T2 742T21 748T41 742T55 723L292 -15Q296 -28 293 -38T281 -53T261 -59T242 -53T228 -34Z" />
<glyph unicode="]" horiz-adv-x="315" d="M34 -180Q19 -180 10 -171T1 -148Q1 -135 10 -126T34 -116H125V641H34Q19 641 10 650T1 673Q1 687 10 696T34 705H171Q186 705 196 695T206 670V-145Q206 -160 196 -170T171 -180H34Z" />
<glyph unicode="^" horiz-adv-x="600" d="M91 133Q70 133 64 146T65 178L260 608Q266 623 276 629T300 635Q328 635 340 608L535 178Q544 159 538 146T509 133Q498 133 490 139T476 159L280 595H320L124 159Q117 145 110 139T91 133Z" />
<glyph unicode="_" horiz-adv-x="500" d="M42 -53Q30 -53 22 -46T13 -27Q13 -16 21 -8T42 0H458Q470 0 478 -8T487 -27Q487 -38 479 -45T458 -53H42Z" />
<glyph unicode="`" horiz-adv-x="356" d="M207 556L106 712Q98 724 100 735T110 754T129 764T151 763T169 745L253 582Q259 570 256 561T243 548T224 544T207 556Z" />
<glyph unicode="a" horiz-adv-x="530" d="M229 -9Q179 -9 140 10T77 64T54 140Q54 194 81 225T172 269T346 282H391V229H347Q266 229 220 222T155 196T136 145Q136 104 164 78T242 52Q282 52 312 71T360 123T378 199V313Q378 375 353 402T271 430Q236 430 201
421T127 392Q113 385 103 387T87 398T80 416T84 437T102 453Q146 475 189 485T271 495Q334 495 375 475T436 413T456 306V35Q456 15 447 4T419 -7Q400 -7 390 4T380 35V113H389Q381 75 359 48T303 6T229 -9Z" />
<glyph unicode="b" horiz-adv-x="583" d="M322 -9Q256 -9 209 25T145 116L156 127V35Q156 15 146 4T116 -7Q96 -7 86 4T76 35V671Q76 691 86 701T116 712Q135 712 146 702T157 671V373H145Q162 429 209 462T322 495Q388 495 436 465T510 378T537 243Q537 166 511
110T436 22T322 -9ZM305 56Q351 56 384 78T436 142T455 243Q455 334 415 382T305 430Q260 430 226 409T174 346T155 243Q155 153 196 105T305 56Z" />
<glyph unicode="c" horiz-adv-x="463" d="M282 -9Q209 -9 156 23T75 112T46 246Q46 304 62 350T109 428T183 478T282 495Q318 495 357 484T428 446Q438 439 441 429T441 410T431 394T414 386T392 393Q366 413 339 421T287 429Q248 429 219 417T170 381T140 324T129
245Q129 158 170 108T287 57Q312 57 338 65T392 93Q403 101 413 100T430 93T439 76T439 57T426 40Q394 14 356 3T282 -9Z" />
<glyph unicode="d" horiz-adv-x="583" d="M261 -9Q196 -9 148 22T73 109T46 243Q46 321 72 377T147 464T261 495Q327 495 374 462T437 373H426V671Q426 691 436 701T467 712Q486 712 496 702T507 671V35Q507 15 497 4T467 -7Q448 -7 438 4T427 35V130L438 116Q422
59 375 25T261 -9ZM278 56Q323 56 357 78T409 142T428 243Q428 334 388 382T278 430Q232 430 199 409T147 346T128 243Q128 153 169 105T278 56Z" />
<glyph unicode="e" horiz-adv-x="532" d="M295 -9Q218 -9 163 21T77 108T46 242Q46 318 76 374T158 463T280 495Q329 495 368 479T434 431T476 356T491 257Q491 241 482 234T456 226H108V279H437L421 266Q421 320 405 357T359 415T282 435Q231 435 196 412T142
347T124 250V244Q124 152 168 104T295 56Q329 56 362 65T428 95Q442 104 453 104T472 97T481 81T480 60T462 41Q429 17 384 4T295 -9Z" />
<glyph unicode="f" horiz-adv-x="333" d="M142 -7Q123 -7 113 4T102 35V423H38Q22 423 13 431T3 455Q3 470 12 478T38 486H124L102 465V503Q102 598 148 648T285 706L314 709Q328 710 336 704T347 689T348 671T339 654T322 646L299 644Q238 639 211 607T183 513V471L171
486H291Q308 486 317 478T326 455Q326 440 317 432T291 423H183V35Q183 -7 142 -7Z" />
<glyph unicode="g" horiz-adv-x="586" d="M291 -189Q238 -189 188 -177T96 -137Q84 -130 81 -120T79 -101T88 -84T104 -74T124 -77Q168 -104 208 -114T287 -124Q358 -124 394 -86T431 24V137H441Q426 79 378 45T264 11Q197 11 148 41T73 127T46 254Q46 308 61
352T104 428T173 477T264 495Q330 495 378 462T440 371L430 359V452Q430 472 440 482T470 493Q490 493 500 483T510 452V35Q510 -76 455 -132T291 -189ZM279 77Q326 77 360 98T412 160T431 254Q431 335 390 382T279 430Q233 430 199 409T147 348T128 254Q128 173
169 125T279 77Z" />
<glyph unicode="h" horiz-adv-x="568" d="M116 -7Q96 -7 86 4T76 35V671Q76 691 86 701T116 712Q135 712 146 702T157 671V378H144Q165 436 212 465T322 495Q380 495 418 474T476 411T495 303V35Q495 15 485 4T455 -7Q435 -7 425 4T414 35V298Q414 366 388 397T303
429Q236 429 197 388T157 277V35Q157 -7 116 -7Z" />
<glyph unicode="i" horiz-adv-x="232" d="M116 -5Q96 -5 86 6T76 39V448Q76 469 86 480T116 491Q135 491 146 480T157 448V39Q157 18 147 7T116 -5ZM116 603Q91 603 77 616T63 653Q63 677 77 689T116 702Q142 702 155 690T169 653Q169 630 156 617T116 603Z" />
<glyph unicode="j" horiz-adv-x="236" d="M-17 -191Q-32 -192 -41 -186T-54 -171T-57 -152T-48 -135T-29 -128Q26 -125 52 -99T79 -15V452Q79 472 89 482T120 493Q139 493 149 483T160 452V-9Q160 -70 140 -109T80 -168T-17 -191ZM119 603Q94 603 80 616T66 653Q66
677 80 689T119 702Q145 702 159 690T173 653Q173 630 159 617T119 603Z" />
<glyph unicode="k" horiz-adv-x="500" d="M116 -7Q96 -7 86 4T76 35V671Q76 691 86 701T116 712Q135 712 146 702T157 671V270H159L364 466Q378 479 388 486T417 493Q433 493 442 485T451 464T438 437L220 230V274L457 51Q471 37 471 24T462 2T437 -7Q419 -7 408
0T381 23L159 228H157V35Q157 -7 116 -7Z" />
<glyph unicode="l" horiz-adv-x="296" d="M224 -9Q152 -9 114 35T76 161V671Q76 691 86 701T116 712Q135 712 146 702T157 671V167Q157 113 178 87T242 60Q251 60 258 61T272 62Q283 63 287 57T292 33Q292 15 284 6T258 -6Q250 -7 241 -8T224 -9Z" />
<glyph unicode="m" horiz-adv-x="856" d="M118 -7Q98 -7 88 4T78 35V452Q78 472 88 482T117 493Q136 493 146 483T157 452V364L146 378Q165 434 207 464T309 495Q371 495 409 466T461 374H446Q464 430 510 462T619 495Q674 495 709 474T763 411T781 303V35Q781
15 771 4T740 -7Q721 -7 711 4T700 35V299Q700 366 677 397T599 429Q539 429 505 388T470 275V35Q470 15 460 4T429 -7Q410 -7 400 4T389 35V299Q389 366 366 397T288 429Q228 429 194 388T159 275V35Q159 -7 118 -7Z" />
<glyph unicode="n" horiz-adv-x="568" d="M116 -7Q96 -7 86 4T76 35V452Q76 472 86 482T115 493Q134 493 144 483T155 452V366L144 378Q165 436 212 465T322 495Q380 495 418 474T476 411T495 303V35Q495 15 485 4T455 -7Q435 -7 425 4T414 35V298Q414 366 388
397T303 429Q236 429 197 388T157 277V35Q157 -7 116 -7Z" />
<glyph unicode="o" horiz-adv-x="556" d="M278 -9Q207 -9 155 22T75 109T46 243Q46 301 62 347T109 427T182 477T278 495Q349 495 401 464T481 377T510 243Q510 185 494 139T447 60T374 9T278 -9ZM278 56Q323 56 357 78T409 142T428 243Q428 334 388 382T278 430Q232
430 199 409T147 346T128 243Q128 153 169 105T278 56Z" />
<glyph unicode="p" horiz-adv-x="583" d="M116 -187Q96 -187 86 -177T76 -146V452Q76 472 86 482T115 493Q135 493 145 483T156 452V357L145 371Q161 428 208 461T322 495Q387 495 435 465T510 378T537 243Q537 166 511 110T436 22T322 -9Q256 -9 209 24T145 114H157V-146Q157
-166 146 -176T116 -187ZM305 56Q351 56 384 78T436 142T455 243Q455 334 415 382T305 430Q260 430 226 409T174 346T155 243Q155 153 196 105T305 56Z" />
<glyph unicode="q" horiz-adv-x="583" d="M467 -187Q447 -187 437 -177T426 -146V114H437Q421 58 374 25T261 -9Q196 -9 148 22T73 109T46 243Q46 321 72 377T147 464T261 495Q327 495 374 462T438 371L427 357V452Q427 472 437 482T467 493Q487 493 497 483T507
452V-146Q507 -166 497 -176T467 -187ZM278 56Q323 56 357 78T409 142T428 243Q428 334 388 382T278 430Q232 430 199 409T147 346T128 243Q128 153 169 105T278 56Z" />
<glyph unicode="r" horiz-adv-x="358" d="M117 -7Q97 -7 87 4T76 35V452Q76 472 86 482T115 493Q134 493 144 483T155 452V371H145Q161 430 206 462T317 496Q332 497 341 490T351 464Q352 447 343 437T315 425L299 423Q231 417 195 380T158 277V35Q158 15 148 4T117 -7Z" />
<glyph unicode="s" horiz-adv-x="481" d="M240 -9Q195 -9 150 2T65 40Q55 47 51 56T48 75T56 92T72 100T94 96Q133 72 169 63T242 53Q299 53 328 74T357 131Q357 159 338 175T278 201L187 221Q124 234 94 266T63 349Q63 394 86 426T153 477T253 495Q297 495 336
484T408 447Q418 440 421 431T423 412T413 396T396 388T375 394Q345 414 314 423T253 433Q197 433 168 411T139 353Q139 325 157 307T213 281L304 262Q369 248 401 218T434 135Q434 69 381 30T240 -9Z" />
<glyph unicode="t" horiz-adv-x="350" d="M271 -9Q214 -9 176 11T118 71T99 168V423H32Q15 423 6 431T-3 455Q-3 470 6 478T32 486H99V601Q99 621 110 631T140 642Q159 642 169 632T180 601V486H306Q323 486 332 478T341 455Q341 440 332 432T306 423H180V176Q180
119 204 90T282 60Q301 60 314 64T337 68Q346 69 352 62T358 38Q358 26 354 16T338 2Q326 -2 307 -5T271 -9Z" />
<glyph unicode="u" horiz-adv-x="561" d="M248 -9Q189 -9 151 12T93 77T73 184V452Q73 473 83 483T113 493Q133 493 143 483T154 452V185Q154 121 180 90T264 58Q326 58 365 100T404 210V452Q404 473 414 483T445 493Q464 493 474 483T485 452V35Q485 -7 446 -7Q427
-7 417 4T406 35V126L419 112Q399 53 354 22T248 -9Z" />
<glyph unicode="v" horiz-adv-x="515" d="M257 -7Q240 -7 227 2T205 32L32 436Q25 451 27 464T39 485T67 493Q83 493 92 486T108 461L272 60H245L412 461Q419 479 428 486T454 493Q470 493 478 485T488 465T484 437L309 32Q302 12 289 3T257 -7Z" />
<glyph unicode="w" horiz-adv-x="841" d="M244 -7Q227 -7 214 2T193 31L44 436Q38 453 40 466T53 486T78 493Q93 493 102 486T118 460L258 60H234L378 460Q385 478 395 485T423 493Q439 493 450 485T467 460L608 60H585L727 462Q734 480 744 486T768 493Q784 493
792 485T802 464T797 436L648 31Q641 12 628 3T597 -7Q580 -7 567 2T547 31L399 437H442L295 31Q288 12 275 3T244 -7Z" />
<glyph unicode="x" horiz-adv-x="525" d="M78 -6Q65 -6 55 2T45 23T57 52L232 272V230L68 435Q55 451 55 464T66 485T89 493Q104 493 114 488T134 470L277 289H249L393 470Q402 482 412 487T437 493Q451 493 460 485T470 464T458 434L295 232V269L470 52Q482 37
482 24T471 2T447 -6Q433 -6 423 -1T402 17L248 211H277L123 17Q114 6 104 0T78 -6Z" />
<glyph unicode="y" horiz-adv-x="514" d="M184 -187Q169 -187 160 -179T150 -158T154 -130L223 25V-10L31 436Q25 451 27 464T39 485T67 493Q83 493 92 486T108 461L272 59H245L411 461Q419 479 428 486T454 493Q470 493 478 485T488 465T484 437L228 -155Q220
-173 211 -180T184 -187Z" />
<glyph unicode="z" horiz-adv-x="463" d="M85 0Q72 0 64 6T53 22T53 44T66 67L348 444V423H81Q65 423 57 431T48 455Q48 470 56 478T81 486H388Q403 486 412 480T425 465T426 444T414 421L127 40V63H408Q441 63 441 32Q441 17 433 9T408 0H85Z" />
<glyph unicode="{" horiz-adv-x="352" d="M247 -180Q214 -180 192 -169T158 -134T146 -78V149Q146 191 130 210T71 230Q58 230 50 240T42 263Q42 277 50 286T71 296Q113 297 129 316T146 376V603Q146 653 172 679T247 705H316Q331 705 341 696T351 673Q351 660
343 651T320 641H270Q249 641 238 630T227 596V368Q227 338 215 314T183 275T136 261V265Q163 265 183 251T215 213T227 158V-71Q227 -94 238 -105T270 -116H320Q334 -116 342 -125T351 -148Q351 -161 341 -170T316 -180H247Z" />
<glyph unicode="|" horiz-adv-x="265" d="M132 -187Q113 -187 103 -177T92 -146V671Q92 692 102 702T132 712Q152 712 162 702T173 671V-146Q173 -187 132 -187Z" />
<glyph unicode="}" horiz-adv-x="352" d="M36 -180Q21 -180 11 -171T1 -148Q1 -135 9 -126T32 -116H82Q104 -116 114 -105T125 -71V158Q125 188 137 212T169 251T216 265V261Q190 261 170 275T137 313T125 368V596Q125 619 115 630T82 641H32Q18 641 10 650T1
673Q1 687 11 696T36 705H106Q138 705 160 694T194 659T206 603V376Q206 335 222 316T281 296Q295 295 302 286T310 263Q310 250 303 240T281 230Q239 229 223 210T206 149V-78Q206 -128 181 -154T106 -180H36Z" />
<glyph unicode="~" horiz-adv-x="600" d="M415 217Q389 217 360 227T289 259Q249 282 228 289T190 297Q168 297 150 288T115 252Q108 239 97 237T76 241T64 258T67 281Q87 320 118 339T186 358Q211 358 239 349T308 317Q345 298 368 288T410 277Q432 277 450 287T485
323Q493 335 504 337T524 334T537 317T534 293Q513 255 483 236T415 217Z" />
<glyph unicode="&#xa0;" horiz-adv-x="258" />
<glyph unicode="&#xa1;" horiz-adv-x="228" d="M115 -187Q91 -187 79 -173T67 -134L87 278Q88 294 95 301T115 309Q127 309 134 302T142 278L161 -134Q162 -158 150 -172T115 -187ZM115 380Q90 380 75 396T60 435Q60 460 75 475T115 490Q140 490 154 475T169 435Q169
412 155 396T115 380Z" />
<glyph unicode="&#xa2;" horiz-adv-x="600" d="M318 -122Q304 -122 294 -112T284 -87V16L298 -6Q237 1 190 34T117 121T91 244Q91 294 105 336T147 411T213 464T298 490L284 464V578Q284 593 294 603T318 613Q333 613 342 603T352 578V467L333 492Q373 492 413
480T484 445Q494 438 497 428T498 408T488 392T471 385T447 392Q423 409 394 417T335 426Q298 426 268 413T217 376T185 319T174 244Q174 161 217 111T334 61Q364 61 392 69T448 95Q462 103 472 103T489 95T498 78T496 58T482 41Q453 19 412 6T331 -7L352 13V-87Q352
-102 343 -112T318 -122Z" />
<glyph unicode="&#xa3;" horiz-adv-x="600" d="M76 0Q62 0 52 10T41 36Q41 51 51 60T76 70H161L146 55V340L161 323H73Q60 323 51 332T41 353Q41 367 50 375T73 384H161L146 368V510Q146 574 170 619T242 689T362 714Q413 714 464 697T549 650Q561 641 564 630T563
608T551 592T531 585T508 593Q476 621 440 632T361 644Q295 644 262 611T228 514V370L220 384H382Q396 384 405 376T415 353Q415 341 406 332T382 323H228V70H524Q539 70 549 61T559 36Q559 21 549 11T524 0H76Z" />
<glyph unicode="&#xa4;" horiz-adv-x="600" d="M50 -11Q41 -2 41 11T50 33L109 93Q86 125 73 164T59 245Q59 288 72 327T109 397L50 458Q41 467 41 479T50 501Q59 510 71 510T94 499L152 440Q182 465 220 479T300 493Q342 493 379 480T447 442L502 499Q512 510
525 510T548 501Q558 492 558 479T547 456L490 398Q514 366 527 327T541 245Q541 202 528 163T489 92L547 33Q557 23 557 11T547 -11Q539 -19 526 -19T504 -9L447 49Q417 25 380 11T300 -3Q258 -3 220 11T151 49L93 -10Q84 -19 72 -19T50 -11ZM300 67Q346 67 384
91T444 155T466 245Q466 294 444 334T384 399T300 423Q254 423 216 399T155 335T132 245Q132 196 154 156T215 91T300 67Z" />
<glyph unicode="&#xa5;" horiz-adv-x="600" d="M300 -7Q280 -7 270 4T259 37V175H99Q83 175 74 183T65 205Q65 219 74 227T99 235H259V328H99Q83 328 74 336T65 358Q65 372 74 380T99 388H233V374L30 656Q21 669 22 682T33 703T58 712Q72 712 81 706T100 686L311
390H290L500 686Q509 700 519 706T543 712Q559 712 568 704T579 682T569 655L368 374V388H501Q517 388 526 380T535 358Q535 344 526 336T501 328H341V235H501Q517 235 526 227T535 205Q535 191 526 183T501 175H341V37Q341 -7 300 -7Z" />
<glyph unicode="&#xa6;" horiz-adv-x="265" d="M132 365Q113 365 103 375T92 406V671Q92 692 102 702T132 712Q152 712 162 702T173 671V406Q173 365 132 365ZM132 -187Q113 -187 103 -177T92 -146V119Q92 139 102 149T132 160Q152 160 162 150T173 119V-146Q173
-187 132 -187Z" />
<glyph unicode="&#xa7;" horiz-adv-x="545" d="M248 -189Q194 -189 148 -177T68 -140Q58 -134 55 -125T54 -105T63 -88T79 -80T101 -85Q131 -105 170 -115T249 -126Q289 -126 319 -114T366 -76T383 -15Q383 23 364 50T293 102L183 153Q130 179 99 204T55 260T42
327Q42 368 63 406T117 469L110 445Q99 459 91 480T82 534Q82 591 109 630T185 691T293 713Q344 713 389 701T468 664Q478 658 481 648T483 628T473 611T457 603T435 609Q406 629 368 640T291 651Q254 651 225 638T179 600T162 539Q162 502 181 475T252 423L362
371Q416 346 446 320T490 265T503 198Q503 156 483 118T428 56L435 79Q446 66 454 44T463 -10Q463 -65 435 -105T359 -167T248 -189ZM116 338Q116 302 139 274T222 216L316 172Q353 155 377 136T415 99L390 98Q410 115 419 138T429 187Q429 223 407 251T323 308L229
353Q193 370 169 388T131 425L155 427Q136 410 126 387T116 338Z" />
<glyph unicode="&#xa8;" horiz-adv-x="467" d="M322 606Q299 606 287 618T274 652Q274 674 286 686T322 699Q344 699 356 687T368 652Q368 630 356 618T322 606ZM147 606Q125 606 113 618T100 652Q100 674 112 686T147 699Q170 699 182 687T194 652Q194 630 182
618T147 606Z" />
<glyph unicode="&#xa9;" horiz-adv-x="815" d="M408 -9Q332 -9 266 18T151 95T74 211T46 353Q46 430 73 495T150 610T265 686T408 714Q485 714 550 687T665 610T741 496T769 353Q769 277 742 211T665 96T551 19T408 -9ZM408 35Q475 35 532 59T632 126T699 227T723
353Q723 421 699 478T633 579T533 646T408 670Q340 670 283 646T183 579T116 479T92 353Q92 285 116 228T182 127T282 59T408 35ZM421 137Q324 137 269 197T213 356Q213 454 268 511T421 568Q455 568 489 557T550 526Q559 520 562 511T563 494T555 479T540 472T520
478Q496 494 472 501T425 508Q359 508 322 468T285 355Q285 282 322 240T425 197Q448 197 472 204T521 228Q534 236 544 233T560 220T563 199T550 180Q523 159 489 148T421 137Z" />
<glyph unicode="&#xaa;" horiz-adv-x="327" d="M136 411Q89 411 58 437T27 501Q27 547 68 567T182 587H242V551H184Q133 551 109 539T84 502Q84 482 99 468T149 453Q174 453 193 464T223 496T234 546V603Q234 636 216 652T162 669Q142 669 121 665T78 651Q65 646
57 650T46 662T47 679T62 693Q87 705 113 709T164 714Q207 714 234 702T276 664T290 601V439Q290 411 263 411Q250 411 243 419T236 439V470H234Q217 439 194 425T136 411Z" />
<glyph unicode="&#xab;" horiz-adv-x="441" d="M187 89Q176 84 165 87T147 102L65 238Q57 252 57 265T65 293L146 428Q153 440 164 443T186 442Q200 436 204 423T201 395L136 265L201 136Q208 121 205 108T187 89ZM368 89Q357 84 346 87T328 102L246 238Q238 252
238 265T246 293L327 428Q334 440 345 443T367 442Q381 436 385 423T382 395L317 265L382 136Q389 121 386 108T368 89Z" />
<glyph unicode="&#xac;" horiz-adv-x="600" d="M512 142Q496 142 488 151T480 175V358H81Q66 358 58 366T49 389Q49 404 57 412T81 420H511Q527 420 535 412T544 387V175Q544 142 512 142Z" />
<glyph unicode="&#xad;" horiz-adv-x="424" d="M100 233Q85 233 75 242T65 266Q65 281 75 290T100 300H325Q339 300 349 291T359 266Q359 252 349 243T325 233H100Z" />
<glyph unicode="&#xae;" horiz-adv-x="815" d="M408 -9Q332 -9 266 18T151 95T74 211T46 353Q46 430 73 495T150 610T265 686T408 714Q485 714 550 687T665 610T741 496T769 353Q769 277 742 211T665 96T551 19T408 -9ZM408 35Q475 35 532 59T632 126T699 227T723
353Q723 421 699 478T633 579T533 646T408 670Q340 670 283 646T183 579T116 479T92 353Q92 285 116 228T182 127T282 59T408 35ZM297 136Q264 136 264 171V524Q264 543 274 553T304 564H435Q503 564 539 532T576 442Q576 384 540 354T437 323L449 333Q479 333
499 321T532 272L567 180Q575 159 565 148T537 136Q525 136 517 143T506 162L464 272Q455 297 437 305T392 314H317L330 324V171Q330 136 297 136ZM330 368H427Q469 368 490 385T511 439Q511 476 491 493T427 510H330V368Z" />
<glyph unicode="&#xaf;" horiz-adv-x="501" d="M129 625Q100 625 100 652Q100 666 107 673T129 680H371Q401 680 401 652Q401 640 394 633T371 625H129Z" />
<glyph unicode="&#xb0;" horiz-adv-x="371" d="M186 418Q143 418 110 438T57 491T37 566Q37 608 56 641T109 694T186 714Q228 714 261 695T313 643T333 566Q333 524 314 491T261 438T186 418ZM186 473Q226 473 250 499T275 566Q275 607 251 633T186 659Q147 659
122 633T96 566Q96 526 121 500T186 473Z" />
<glyph unicode="&#xb1;" horiz-adv-x="600" d="M300 120Q284 120 276 129T268 154V297H82Q66 297 58 305T49 329Q49 343 57 351T82 359H268V503Q268 519 276 527T300 536Q316 536 324 528T332 503V359H519Q534 359 542 351T551 329Q551 313 543 305T519 297H332V154Q332
138 324 129T300 120ZM81 0Q66 0 58 8T49 31Q49 46 57 54T81 62H519Q534 62 542 54T551 31Q551 16 543 8T519 0H81Z" />
<glyph unicode="&#xb2;" horiz-adv-x="380" d="M85 282Q70 282 61 290T52 311Q52 323 57 331T70 349L189 478Q218 509 230 534T243 585Q243 616 225 633T173 650Q151 650 128 643T85 620Q72 612 61 614T44 626T40 648T55 669Q81 688 116 698T185 709Q225 709 254
695T300 654T316 592Q316 558 300 526T249 457L132 332V341H310Q341 341 341 312Q341 298 333 290T310 282H85Z" />
<glyph unicode="&#xb3;" horiz-adv-x="380" d="M187 278Q148 278 114 288T54 318Q41 327 39 338T41 360T58 372T84 366Q106 351 130 344T181 337Q216 337 239 353T263 405Q263 438 240 452T177 466H127Q111 466 103 474T95 496Q95 510 103 517T127 525H166Q205
525 228 541T251 590Q251 618 232 634T176 650Q155 650 132 643T88 622Q73 613 62 615T44 627T40 648T55 669Q82 688 116 698T186 709Q247 709 283 679T319 600Q319 558 295 531T236 495V503Q279 497 305 470T331 398Q331 360 312 333T261 292T187 278Z" />
<glyph unicode="&#xb4;" horiz-adv-x="356" d="M150 556Q143 546 133 545T114 547T101 561T103 582L187 745Q194 759 205 763T227 765T247 754T256 735T250 712L150 556Z" />
<glyph unicode="&#xb5;" horiz-adv-x="600" d="M135 -187Q115 -187 105 -177T95 -146V452Q95 473 105 483T135 493Q154 493 165 483T176 452V186Q176 121 202 91T285 60Q348 60 387 101T426 211V452Q426 473 436 483T466 493Q486 493 496 483T507 452V35Q507 -7
468 -7Q449 -7 439 3T428 30V112H436Q420 53 379 22T284 -9Q240 -9 207 7T156 67H169L174 -145Q175 -165 165 -176T135 -187Z" />
<glyph unicode="&#xb6;" horiz-adv-x="588" d="M276 -187Q260 -187 252 -178T244 -154V310Q184 310 139 335T70 405T45 508Q45 565 69 610T139 680T245 705H459Q479 705 490 695T501 664V-154Q501 -187 469 -187Q453 -187 445 -178T436 -154V643H309V-154Q309
-187 276 -187Z" />
<glyph unicode="&#xb7;" horiz-adv-x="228" d="M115 211Q90 211 75 226T60 266Q60 290 75 305T115 321Q140 321 154 306T169 266Q169 242 155 227T115 211Z" />
<glyph unicode="&#xb8;" horiz-adv-x="402" d="M190 -192Q172 -192 153 -190T117 -180Q106 -176 102 -167T101 -149T112 -136T132 -136Q144 -141 157 -143T188 -145Q214 -145 230 -136T246 -108Q246 -95 237 -88T208 -80Q200 -80 193 -81T175 -84Q166 -87 161
-87T151 -84Q147 -80 147 -75T147 -59L159 20H210L197 -55L173 -49Q185 -46 196 -44T218 -42Q254 -42 278 -60T302 -110Q302 -147 271 -169T190 -192Z" />
<glyph unicode="&#xb9;" horiz-adv-x="380" d="M114 282Q83 282 83 312Q83 325 90 333T114 341H181V645H212L129 593Q113 584 102 587T84 601T81 623T98 644L179 694Q189 701 198 704T218 708Q228 708 234 704T245 693T249 675V341H301Q332 341 332 312Q332 298
324 290T301 282H114Z" />
<glyph unicode="&#xba;" horiz-adv-x="339" d="M170 411Q127 411 94 430T42 483T23 563Q23 609 42 643T94 695T170 714Q212 714 245 696T297 643T316 563Q316 517 297 483T245 430T170 411ZM170 457Q210 457 234 484T258 563Q258 614 234 641T170 668Q129 668
105 642T81 563Q81 511 105 484T170 457Z" />
<glyph unicode="&#xbb;" horiz-adv-x="441" d="M73 89Q59 94 56 107T59 136L124 265L59 395Q53 410 57 423T74 442Q86 447 97 444T115 428L195 293Q204 279 204 266T195 238L113 102Q107 91 96 88T73 89ZM254 89Q240 94 237 107T240 136L305 265L240 395Q234 410
238 423T255 442Q267 447 278 444T296 428L376 293Q385 279 385 266T376 238L294 102Q288 91 277 88T254 89Z" />
<glyph unicode="&#xbc;" horiz-adv-x="893" d="M114 282Q83 282 83 312Q83 325 90 333T114 341H181V645H212L129 593Q113 584 102 587T84 601T81 623T98 644L179 694Q189 701 198 704T218 708Q228 708 234 704T245 693T249 675V341H301Q332 341 332 312Q332 298
324 290T301 282H114ZM304 1Q297 -11 288 -15T269 -17T253 -7T245 10T250 33L638 704Q645 716 655 720T674 722T690 712T698 695T692 672L304 1ZM775 -3Q759 -3 750 5T741 29V83H580Q564 83 555 92T546 114Q546 124 550 133T563 154L733 402Q738 410 748 418T774
426Q791 426 799 417T808 390V142H844Q857 142 865 135T873 113Q873 97 865 90T844 83H808V29Q808 14 800 6T775 -3ZM741 142V346H757L605 125V142H741Z" />
<glyph unicode="&#xbd;" horiz-adv-x="937" d="M114 282Q83 282 83 312Q83 325 90 333T114 341H181V645H212L129 593Q113 584 102 587T84 601T81 623T98 644L179 694Q189 701 198 704T218 708Q228 708 234 704T245 693T249 675V341H301Q332 341 332 312Q332 298
324 290T301 282H114ZM304 1Q297 -11 288 -15T269 -17T253 -7T245 10T250 33L638 704Q645 716 655 720T674 722T690 712T698 695T692 672L304 1ZM642 0Q627 0 618 8T609 29Q609 41 614 49T627 67L746 196Q775 227 787 252T800 303Q800 334 782 351T730 368Q708
368 685 361T642 338Q629 330 618 332T601 344T597 366T612 387Q638 406 673 416T742 427Q782 427 811 413T857 372T873 310Q873 276 857 244T806 175L689 50V59H867Q898 59 898 30Q898 16 890 8T867 0H642Z" />
<glyph unicode="&#xbe;" horiz-adv-x="893" d="M187 278Q148 278 114 288T54 318Q41 327 39 338T41 360T58 372T84 366Q106 351 130 344T181 337Q216 337 239 353T263 405Q263 438 240 452T177 466H127Q111 466 103 474T95 496Q95 510 103 517T127 525H166Q205
525 228 541T251 590Q251 618 232 634T176 650Q155 650 132 643T88 622Q73 613 62 615T44 627T40 648T55 669Q82 688 116 698T186 709Q247 709 283 679T319 600Q319 558 295 531T236 495V503Q279 497 305 470T331 398Q331 360 312 333T261 292T187 278ZM304 1Q297
-11 288 -15T269 -17T253 -7T245 10T250 33L638 704Q645 716 655 720T674 722T690 712T698 695T692 672L304 1ZM775 -3Q759 -3 750 5T741 29V83H580Q564 83 555 92T546 114Q546 124 550 133T563 154L733 402Q738 410 748 418T774 426Q791 426 799 417T808 390V142H844Q857
142 865 135T873 113Q873 97 865 90T844 83H808V29Q808 14 800 6T775 -3ZM741 142V346H757L605 125V142H741Z" />
<glyph unicode="&#xbf;" horiz-adv-x="443" d="M216 -189Q159 -189 116 -171T49 -118T24 -40Q24 3 43 41T116 129Q148 159 166 183T194 231T207 281Q208 293 215 300T234 307Q247 307 254 299T261 276Q261 245 254 217T228 160T176 97Q136 57 122 29T107 -29Q107
-69 137 -92T220 -116Q266 -116 306 -104T382 -64Q397 -54 409 -54T430 -61T441 -80T438 -103T418 -125Q379 -153 328 -171T216 -189ZM235 380Q211 380 196 395T180 435Q180 459 195 474T235 490Q261 490 275 475T290 435Q290 411 276 396T235 380Z" />
<glyph unicode="&#xc0;" horiz-adv-x="729" d="M72 -7Q56 -7 47 0T36 20T41 49L316 675Q325 695 337 703T365 712Q380 712 392 704T413 675L689 49Q697 33 696 20T685 0T660 -7Q642 -7 631 2T613 30L539 201L579 180H149L190 201L117 30Q108 11 98 2T72 -7ZM364
609L203 230L179 249H549L527 230L366 609H364ZM331 769L227 892Q218 903 218 913T226 932T243 943T265 944T285 928L374 799Q381 788 379 779T368 765T350 759T331 769Z" />
<glyph unicode="&#xc1;" horiz-adv-x="729" d="M72 -7Q56 -7 47 0T36 20T41 49L316 675Q325 695 337 703T365 712Q380 712 392 704T413 675L689 49Q697 33 696 20T685 0T660 -7Q642 -7 631 2T613 30L539 201L579 180H149L190 201L117 30Q108 11 98 2T72 -7ZM364
609L203 230L179 249H549L527 230L366 609H364ZM401 769Q393 760 383 760T364 764T354 779T358 799L447 928Q456 941 467 944T489 944T506 932T513 914T505 892L401 769Z" />
<glyph unicode="&#xc2;" horiz-adv-x="729" d="M72 -7Q56 -7 47 0T36 20T41 49L316 675Q325 695 337 703T365 712Q380 712 392 704T413 675L689 49Q697 33 696 20T685 0T660 -7Q642 -7 631 2T613 30L539 201L579 180H149L190 201L117 30Q108 11 98 2T72 -7ZM364
609L203 230L179 249H549L527 230L366 609H364ZM270 768Q261 759 251 758T232 762T222 776T227 795L315 918Q325 933 338 939T366 946Q382 946 394 940T418 918L505 795Q513 785 511 776T501 762T482 758T463 768L366 884L270 768Z" />
<glyph unicode="&#xc3;" horiz-adv-x="729" d="M72 -7Q56 -7 47 0T36 20T41 49L316 675Q325 695 337 703T365 712Q380 712 392 704T413 675L689 49Q697 33 696 20T685 0T660 -7Q642 -7 631 2T613 30L539 201L579 180H149L190 201L117 30Q108 11 98 2T72 -7ZM364
609L203 230L179 249H549L527 230L366 609H364ZM182 780Q171 780 165 787T160 808Q170 861 201 890T277 919Q304 919 328 908T374 881T417 855T458 843Q485 843 502 860T524 905Q527 916 533 921T550 925Q561 925 568 918T572 897Q562 844 532 815T456 786Q429
786 405 797T358 823T315 850T274 862Q248 862 231 845T208 800Q205 790 199 785T182 780Z" />
<glyph unicode="&#xc4;" horiz-adv-x="729" d="M72 -7Q56 -7 47 0T36 20T41 49L316 675Q325 695 337 703T365 712Q380 712 392 704T413 675L689 49Q697 33 696 20T685 0T660 -7Q642 -7 631 2T613 30L539 201L579 180H149L190 201L117 30Q108 11 98 2T72 -7ZM364
609L203 230L179 249H549L527 230L366 609H364ZM454 802Q431 802 419 814T406 849Q406 871 418 883T454 895Q476 895 488 883T500 849Q500 826 488 814T454 802ZM279 802Q257 802 245 814T232 849Q232 871 244 883T279 895Q302 895 314 883T326 849Q326 826 314
814T279 802Z" />
<glyph unicode="&#xc5;" horiz-adv-x="729" d="M72 -7Q56 -7 47 0T36 20T41 49L316 675Q325 695 337 703T365 712Q380 712 392 704T413 675L689 49Q697 33 696 20T685 0T660 -7Q642 -7 631 2T613 30L539 201L579 180H149L190 201L117 30Q108 11 98 2T72 -7ZM364
609L203 230L179 249H549L527 230L366 609H364ZM366 758Q333 758 306 773T263 815T247 874Q247 907 263 932T306 973T366 989Q400 989 426 974T469 933T485 874Q485 842 469 816T427 774T366 758ZM366 801Q398 801 418 822T438 874Q438 904 418 925T366 946Q335
946 315 925T294 874Q294 843 314 822T366 801Z" />
<glyph unicode="&#xc6;" horiz-adv-x="981" d="M42 -7Q24 -7 14 0T4 20T12 45L397 680Q405 693 416 699T442 705H900Q918 705 927 696T937 671Q937 654 928 645T900 636H480L497 665L560 370L531 392H880Q898 392 907 384T917 358Q917 341 908 332T880 323H546L566
345L630 41L598 69H900Q918 69 927 60T937 35Q937 18 928 9T900 0H598Q565 0 557 33L521 204L551 180H161L193 202L85 20Q77 7 67 0T42 -7ZM433 608L208 229L199 249H530L516 227L435 608H433Z" />
<glyph unicode="&#xc7;" horiz-adv-x="673" d="M392 -9Q288 -9 214 35T101 160T61 353Q61 437 83 503T148 616T253 688T392 714Q454 714 510 697T607 645Q620 635 624 623T626 599T614 580T593 572T566 582Q530 611 487 625T394 639Q315 639 260 606T177 508T149
353Q149 262 177 198T260 100T394 66Q443 66 487 80T568 124Q583 134 595 134T615 126T626 108T627 85T611 64Q569 28 513 10T392 -9ZM388 -192Q370 -192 351 -190T315 -180Q304 -176 300 -167T299 -149T310 -136T330 -136Q342 -141 355 -143T386 -145Q412 -145
428 -136T444 -108Q444 -95 435 -88T406 -80Q398 -80 391 -81T373 -84Q364 -87 359 -87T349 -84Q345 -80 345 -75T345 -59L357 20H408L395 -55L371 -49Q383 -46 394 -44T416 -42Q452 -42 476 -60T500 -110Q500 -147 469 -169T388 -192Z" />
<glyph unicode="&#xc8;" horiz-adv-x="583" d="M132 0Q110 0 99 11T87 45V660Q87 682 98 693T132 705H504Q521 705 530 696T539 671Q539 654 530 645T504 636H167V392H483Q500 392 509 384T518 358Q518 341 509 332T483 323H167V69H504Q521 69 530 60T539 35Q539
18 530 9T504 0H132ZM289 769L185 892Q176 903 176 913T184 932T201 943T223 944T243 928L332 799Q339 788 337 779T326 765T308 759T289 769Z" />
<glyph unicode="&#xc9;" horiz-adv-x="583" d="M132 0Q110 0 99 11T87 45V660Q87 682 98 693T132 705H504Q521 705 530 696T539 671Q539 654 530 645T504 636H167V392H483Q500 392 509 384T518 358Q518 341 509 332T483 323H167V69H504Q521 69 530 60T539 35Q539
18 530 9T504 0H132ZM359 769Q351 760 341 760T322 764T312 779T316 799L405 928Q414 941 425 944T447 944T464 932T471 914T463 892L359 769Z" />
<glyph unicode="&#xca;" horiz-adv-x="583" d="M132 0Q110 0 99 11T87 45V660Q87 682 98 693T132 705H504Q521 705 530 696T539 671Q539 654 530 645T504 636H167V392H483Q500 392 509 384T518 358Q518 341 509 332T483 323H167V69H504Q521 69 530 60T539 35Q539
18 530 9T504 0H132ZM228 768Q219 759 209 758T190 762T180 776T185 795L273 918Q283 933 296 939T324 946Q340 946 352 940T376 918L463 795Q471 785 469 776T459 762T440 758T421 768L324 884L228 768Z" />
<glyph unicode="&#xcb;" horiz-adv-x="583" d="M132 0Q110 0 99 11T87 45V660Q87 682 98 693T132 705H504Q521 705 530 696T539 671Q539 654 530 645T504 636H167V392H483Q500 392 509 384T518 358Q518 341 509 332T483 323H167V69H504Q521 69 530 60T539 35Q539
18 530 9T504 0H132ZM412 802Q389 802 377 814T364 849Q364 871 376 883T412 895Q434 895 446 883T458 849Q458 826 446 814T412 802ZM237 802Q215 802 203 814T190 849Q190 871 202 883T237 895Q260 895 272 883T284 849Q284 826 272 814T237 802Z" />
<glyph unicode="&#xcc;" horiz-adv-x="257" d="M128 -7Q108 -7 98 4T87 36V669Q87 690 97 701T128 712Q148 712 158 701T169 669V36Q169 16 159 5T128 -7ZM93 769L-11 892Q-20 903 -20 913T-12 932T5 943T27 944T47 928L136 799Q143 788 141 779T130 765T112 759T93 769Z" />
<glyph unicode="&#xcd;" horiz-adv-x="257" d="M128 -7Q108 -7 98 4T87 36V669Q87 690 97 701T128 712Q148 712 158 701T169 669V36Q169 16 159 5T128 -7ZM163 769Q155 760 145 760T126 764T116 779T120 799L209 928Q218 941 229 944T251 944T268 932T275 914T267
892L163 769Z" />
<glyph unicode="&#xce;" horiz-adv-x="257" d="M128 -7Q108 -7 98 4T87 36V669Q87 690 97 701T128 712Q148 712 158 701T169 669V36Q169 16 159 5T128 -7ZM32 768Q23 759 13 758T-6 762T-16 776T-11 795L77 918Q87 933 100 939T128 946Q144 946 156 940T180 918L267
795Q275 785 273 776T263 762T244 758T225 768L128 884L32 768Z" />
<glyph unicode="&#xcf;" horiz-adv-x="257" d="M128 -7Q108 -7 98 4T87 36V669Q87 690 97 701T128 712Q148 712 158 701T169 669V36Q169 16 159 5T128 -7ZM216 802Q193 802 181 814T168 849Q168 871 180 883T216 895Q238 895 250 883T262 849Q262 826 250 814T216
802ZM41 802Q19 802 7 814T-6 849Q-6 871 6 883T41 895Q64 895 76 883T88 849Q88 826 76 814T41 802Z" />
<glyph unicode="&#xd0;" horiz-adv-x="742" d="M132 0Q110 0 99 11T87 45V660Q87 682 98 693T132 705H325Q496 705 589 615T682 353Q682 267 659 202T589 91T477 23T325 0H132ZM169 70H319Q389 70 440 88T526 141T578 229T595 353Q595 494 526 564T319 635H169V70ZM25
326Q9 326 1 334T-8 358Q-8 373 0 381T25 390H340Q356 390 364 382T373 358Q373 343 365 335T340 326H25Z" />
<glyph unicode="&#xd1;" horiz-adv-x="740" d="M126 -7Q107 -7 97 3T87 34V670Q87 690 97 701T123 712Q139 712 146 707T164 687L600 106H576V672Q576 691 586 701T615 712Q633 712 642 702T652 672V33Q652 14 644 4T619 -7Q604 -7 595 -1T576 18L141 599H164V34Q164
14 154 4T126 -7ZM186 780Q175 780 169 787T164 808Q174 861 205 890T281 919Q308 919 332 908T378 881T421 855T462 843Q489 843 506 860T528 905Q531 916 537 921T554 925Q565 925 572 918T576 897Q566 844 536 815T460 786Q433 786 409 797T362 823T319 850T278
862Q252 862 235 845T212 800Q209 790 203 785T186 780Z" />
<glyph unicode="&#xd2;" horiz-adv-x="767" d="M383 -9Q285 -9 213 35T101 161T61 353Q61 437 83 503T148 616T249 688T383 714Q483 714 555 670T667 546T707 354Q707 270 684 203T619 89T518 17T383 -9ZM383 64Q459 64 511 98T592 197T620 353Q620 490 559 565T383
641Q309 641 257 607T176 509T148 353Q148 217 210 141T383 64ZM348 769L244 892Q235 903 235 913T243 932T260 943T282 944T302 928L391 799Q398 788 396 779T385 765T367 759T348 769Z" />
<glyph unicode="&#xd3;" horiz-adv-x="767" d="M383 -9Q285 -9 213 35T101 161T61 353Q61 437 83 503T148 616T249 688T383 714Q483 714 555 670T667 546T707 354Q707 270 684 203T619 89T518 17T383 -9ZM383 64Q459 64 511 98T592 197T620 353Q620 490 559 565T383
641Q309 641 257 607T176 509T148 353Q148 217 210 141T383 64ZM418 769Q410 760 400 760T381 764T371 779T375 799L464 928Q473 941 484 944T506 944T523 932T530 914T522 892L418 769Z" />
<glyph unicode="&#xd4;" horiz-adv-x="767" d="M383 -9Q285 -9 213 35T101 161T61 353Q61 437 83 503T148 616T249 688T383 714Q483 714 555 670T667 546T707 354Q707 270 684 203T619 89T518 17T383 -9ZM383 64Q459 64 511 98T592 197T620 353Q620 490 559 565T383
641Q309 641 257 607T176 509T148 353Q148 217 210 141T383 64ZM287 768Q278 759 268 758T249 762T239 776T244 795L332 918Q342 933 355 939T383 946Q399 946 411 940T435 918L522 795Q530 785 528 776T518 762T499 758T480 768L383 884L287 768Z" />
<glyph unicode="&#xd5;" horiz-adv-x="767" d="M383 -9Q285 -9 213 35T101 161T61 353Q61 437 83 503T148 616T249 688T383 714Q483 714 555 670T667 546T707 354Q707 270 684 203T619 89T518 17T383 -9ZM383 64Q459 64 511 98T592 197T620 353Q620 490 559 565T383
641Q309 641 257 607T176 509T148 353Q148 217 210 141T383 64ZM199 780Q188 780 182 787T177 808Q187 861 218 890T294 919Q321 919 345 908T391 881T434 855T475 843Q502 843 519 860T541 905Q544 916 550 921T567 925Q578 925 585 918T589 897Q579 844 549 815T473
786Q446 786 422 797T375 823T332 850T291 862Q265 862 248 845T225 800Q222 790 216 785T199 780Z" />
<glyph unicode="&#xd6;" horiz-adv-x="767" d="M383 -9Q285 -9 213 35T101 161T61 353Q61 437 83 503T148 616T249 688T383 714Q483 714 555 670T667 546T707 354Q707 270 684 203T619 89T518 17T383 -9ZM383 64Q459 64 511 98T592 197T620 353Q620 490 559 565T383
641Q309 641 257 607T176 509T148 353Q148 217 210 141T383 64ZM471 802Q448 802 436 814T423 849Q423 871 435 883T471 895Q493 895 505 883T517 849Q517 826 505 814T471 802ZM296 802Q274 802 262 814T249 849Q249 871 261 883T296 895Q319 895 331 883T343
849Q343 826 331 814T296 802Z" />
<glyph unicode="&#xd7;" horiz-adv-x="600" d="M129 70Q117 58 105 59T84 68T75 89T85 113L256 284L82 458Q73 468 72 478T75 496T88 510T107 514T126 502L300 329L473 502Q485 514 497 513T519 504T529 483T517 458L344 284L515 113Q524 104 525 94T522 76T509
63T491 59T471 70L300 241L129 70Z" />
<glyph unicode="&#xd8;" horiz-adv-x="767" d="M383 -9Q285 -9 213 35T101 161T61 353Q61 437 83 503T148 616T249 688T383 714Q483 714 555 670T667 546T707 354Q707 270 684 203T619 89T518 17T383 -9ZM383 64Q459 64 511 98T592 197T620 353Q620 490 559 565T383
641Q309 641 257 607T176 509T148 353Q148 217 210 141T383 64ZM201 -26Q194 -38 185 -41T165 -42T148 -32T140 -14T145 9L186 79L210 119L506 625L525 660L566 731Q573 743 582 746T602 747T620 737T628 719T622 696L581 626L557 586L262 80L243 46L201 -26Z"
/>
<glyph unicode="&#xd9;" horiz-adv-x="728" d="M365 -9Q295 -9 243 9T154 64T100 155T82 279V670Q82 691 92 701T123 712Q143 712 153 702T164 670V283Q164 173 215 119T365 64Q464 64 514 118T564 283V670Q564 691 575 701T606 712Q625 712 635 702T646 670V279Q646
186 615 121T520 24T365 -9ZM330 769L226 892Q217 903 217 913T225 932T242 943T264 944T284 928L373 799Q380 788 378 779T367 765T349 759T330 769Z" />
<glyph unicode="&#xda;" horiz-adv-x="728" d="M365 -9Q295 -9 243 9T154 64T100 155T82 279V670Q82 691 92 701T123 712Q143 712 153 702T164 670V283Q164 173 215 119T365 64Q464 64 514 118T564 283V670Q564 691 575 701T606 712Q625 712 635 702T646 670V279Q646
186 615 121T520 24T365 -9ZM400 769Q392 760 382 760T363 764T353 779T357 799L446 928Q455 941 466 944T488 944T505 932T512 914T504 892L400 769Z" />
<glyph unicode="&#xdb;" horiz-adv-x="728" d="M365 -9Q295 -9 243 9T154 64T100 155T82 279V670Q82 691 92 701T123 712Q143 712 153 702T164 670V283Q164 173 215 119T365 64Q464 64 514 118T564 283V670Q564 691 575 701T606 712Q625 712 635 702T646 670V279Q646
186 615 121T520 24T365 -9ZM269 768Q260 759 250 758T231 762T221 776T226 795L314 918Q324 933 337 939T365 946Q381 946 393 940T417 918L504 795Q512 785 510 776T500 762T481 758T462 768L365 884L269 768Z" />
<glyph unicode="&#xdc;" horiz-adv-x="728" d="M365 -9Q295 -9 243 9T154 64T100 155T82 279V670Q82 691 92 701T123 712Q143 712 153 702T164 670V283Q164 173 215 119T365 64Q464 64 514 118T564 283V670Q564 691 575 701T606 712Q625 712 635 702T646 670V279Q646
186 615 121T520 24T365 -9ZM453 802Q430 802 418 814T405 849Q405 871 417 883T453 895Q475 895 487 883T499 849Q499 826 487 814T453 802ZM278 802Q256 802 244 814T231 849Q231 871 243 883T278 895Q301 895 313 883T325 849Q325 826 313 814T278 802Z" />
<glyph unicode="&#xdd;" horiz-adv-x="596" d="M298 -7Q278 -7 268 4T257 37V365L275 308L24 654Q15 667 15 680T26 703T52 712Q66 712 77 706T97 685L310 391H289L502 685Q513 700 523 706T547 712Q563 712 572 704T581 682T572 653L322 308L339 365V37Q339 -7
298 -7ZM333 769Q325 760 315 760T296 764T286 779T290 799L379 928Q388 941 399 944T421 944T438 932T445 914T437 892L333 769Z" />
<glyph unicode="&#xde;" horiz-adv-x="634" d="M128 -5Q108 -5 98 6T87 38V667Q87 688 98 699T129 710Q149 710 159 700T169 671V577H367Q480 577 541 522T602 366Q602 265 541 210T367 154H169V38Q169 18 159 7T128 -5ZM169 222H357Q438 222 479 258T520 366Q520
437 479 473T357 509H169V222Z" />
<glyph unicode="&#xdf;" horiz-adv-x="615" d="M403 -9Q360 -9 316 3T238 40Q227 47 223 57T221 77T230 94T248 102T269 96Q302 75 338 66T404 56Q453 56 481 77T509 134Q509 163 485 182T402 220Q322 245 290 276T258 356Q258 377 265 396T289 437T336 484Q367
511 379 532T392 579Q392 612 369 631T302 651Q232 651 195 609T157 490V35Q157 15 146 4T116 -7Q96 -7 86 4T76 35V480Q76 592 135 653T301 714Q354 714 392 699T450 654T470 586Q470 548 453 518T394 451Q371 431 358 417T340 390T335 364Q335 338 358 319T442
281Q519 258 552 224T585 136Q585 93 563 61T499 10T403 -9Z" />
<glyph unicode="&#xe0;" horiz-adv-x="530" d="M229 -9Q179 -9 140 10T77 64T54 140Q54 194 81 225T172 269T346 282H391V229H347Q266 229 220 222T155 196T136 145Q136 104 164 78T242 52Q282 52 312 71T360 123T378 199V313Q378 375 353 402T271 430Q236 430
201 421T127 392Q113 385 103 387T87 398T80 416T84 437T102 453Q146 475 189 485T271 495Q334 495 375 475T436 413T456 306V35Q456 15 447 4T419 -7Q400 -7 390 4T380 35V113H389Q381 75 359 48T303 6T229 -9ZM240 556L139 712Q131 724 133 735T143 754T162 764T184
763T202 745L286 582Q292 570 289 561T276 548T257 544T240 556Z" />
<glyph unicode="&#xe1;" horiz-adv-x="530" d="M229 -9Q179 -9 140 10T77 64T54 140Q54 194 81 225T172 269T346 282H391V229H347Q266 229 220 222T155 196T136 145Q136 104 164 78T242 52Q282 52 312 71T360 123T378 199V313Q378 375 353 402T271 430Q236 430
201 421T127 392Q113 385 103 387T87 398T80 416T84 437T102 453Q146 475 189 485T271 495Q334 495 375 475T436 413T456 306V35Q456 15 447 4T419 -7Q400 -7 390 4T380 35V113H389Q381 75 359 48T303 6T229 -9ZM305 556Q298 546 288 545T269 547T256 561T258 582L342
745Q349 759 360 763T382 765T402 754T411 735T405 712L305 556Z" />
<glyph unicode="&#xe2;" horiz-adv-x="530" d="M229 -9Q179 -9 140 10T77 64T54 140Q54 194 81 225T172 269T346 282H391V229H347Q266 229 220 222T155 196T136 145Q136 104 164 78T242 52Q282 52 312 71T360 123T378 199V313Q378 375 353 402T271 430Q236 430
201 421T127 392Q113 385 103 387T87 398T80 416T84 437T102 453Q146 475 189 485T271 495Q334 495 375 475T436 413T456 306V35Q456 15 447 4T419 -7Q400 -7 390 4T380 35V113H389Q381 75 359 48T303 6T229 -9ZM404 582Q410 570 407 561T395 547T377 544T361 556L272
699L183 556Q177 546 168 545T150 547T138 560T140 582L223 734Q232 750 244 758T272 766Q288 766 300 758T321 734L404 582Z" />
<glyph unicode="&#xe3;" horiz-adv-x="530" d="M229 -9Q179 -9 140 10T77 64T54 140Q54 194 81 225T172 269T346 282H391V229H347Q266 229 220 222T155 196T136 145Q136 104 164 78T242 52Q282 52 312 71T360 123T378 199V313Q378 375 353 402T271 430Q236 430
201 421T127 392Q113 385 103 387T87 398T80 416T84 437T102 453Q146 475 189 485T271 495Q334 495 375 475T436 413T456 306V35Q456 15 447 4T419 -7Q400 -7 390 4T380 35V113H389Q381 75 359 48T303 6T229 -9ZM115 587Q105 587 99 594T95 615Q99 639 107 659T128
694T158 717T199 726Q224 726 242 715T277 689T310 662T344 650Q367 650 382 667T403 714Q405 724 411 728T429 732Q439 732 445 725T449 704Q444 673 431 648T396 608T345 593Q320 593 302 604T267 631T234 657T200 669Q177 669 162 652T141 605Q139 596 133 591T115
587Z" />
<glyph unicode="&#xe4;" horiz-adv-x="530" d="M229 -9Q179 -9 140 10T77 64T54 140Q54 194 81 225T172 269T346 282H391V229H347Q266 229 220 222T155 196T136 145Q136 104 164 78T242 52Q282 52 312 71T360 123T378 199V313Q378 375 353 402T271 430Q236 430
201 421T127 392Q113 385 103 387T87 398T80 416T84 437T102 453Q146 475 189 485T271 495Q334 495 375 475T436 413T456 306V35Q456 15 447 4T419 -7Q400 -7 390 4T380 35V113H389Q381 75 359 48T303 6T229 -9ZM360 606Q337 606 325 618T312 652Q312 674 324 686T360
699Q382 699 394 687T406 652Q406 630 394 618T360 606ZM185 606Q163 606 151 618T138 652Q138 674 150 686T185 699Q208 699 220 687T232 652Q232 630 220 618T185 606Z" />
<glyph unicode="&#xe5;" horiz-adv-x="530" d="M229 -9Q179 -9 140 10T77 64T54 140Q54 194 81 225T172 269T346 282H391V229H347Q266 229 220 222T155 196T136 145Q136 104 164 78T242 52Q282 52 312 71T360 123T378 199V313Q378 375 353 402T271 430Q236 430
201 421T127 392Q113 385 103 387T87 398T80 416T84 437T102 453Q146 475 189 485T271 495Q334 495 375 475T436 413T456 306V35Q456 15 447 4T419 -7Q400 -7 390 4T380 35V113H389Q381 75 359 48T303 6T229 -9ZM272 547Q239 547 212 562T169 604T153 663Q153 696
169 721T212 762T272 778Q306 778 332 763T375 722T391 663Q391 631 375 605T333 563T272 547ZM272 590Q304 590 324 611T344 663Q344 693 324 714T272 735Q241 735 221 714T200 663Q200 632 220 611T272 590Z" />
<glyph unicode="&#xe6;" horiz-adv-x="861" d="M234 -9Q182 -9 142 10T78 64T54 140Q54 194 82 225T174 269T347 282H392V228H347Q266 228 220 221T155 196T136 145Q136 104 165 78T244 52Q285 52 316 71T364 125T381 204V312Q381 374 355 402T272 430Q237 430
202 421T127 392Q114 385 104 387T87 398T81 416T85 437T103 453Q146 475 189 485T273 495Q346 495 388 465T444 374H421Q446 433 497 464T613 496Q661 496 699 480T764 433T805 358T819 258V255Q819 241 811 235T785 228H451V282H765L750 269Q750 321 734 358T688
415T612 435Q566 435 532 413T479 351T460 253V246Q460 154 502 105T626 56Q657 56 691 65T758 95Q771 104 782 104T801 97T811 81T809 60T792 41Q759 17 715 4T627 -9Q542 -9 484 30T404 145H424Q410 74 360 33T234 -9Z" />
<glyph unicode="&#xe7;" horiz-adv-x="463" d="M282 -9Q209 -9 156 23T75 112T46 246Q46 304 62 350T109 428T183 478T282 495Q318 495 357 484T428 446Q438 439 441 429T441 410T431 394T414 386T392 393Q366 413 339 421T287 429Q248 429 219 417T170 381T140
324T129 245Q129 158 170 108T287 57Q312 57 338 65T392 93Q403 101 413 100T430 93T439 76T439 57T426 40Q394 14 356 3T282 -9ZM281 -192Q263 -192 244 -190T208 -180Q197 -176 193 -167T192 -149T203 -136T223 -136Q235 -141 248 -143T279 -145Q305 -145 321
-136T337 -108Q337 -95 328 -88T299 -80Q291 -80 284 -81T266 -84Q257 -87 252 -87T242 -84Q238 -80 238 -75T238 -59L250 20H301L288 -55L264 -49Q276 -46 287 -44T309 -42Q345 -42 369 -60T393 -110Q393 -147 362 -169T281 -192Z" />
<glyph unicode="&#xe8;" horiz-adv-x="532" d="M295 -9Q218 -9 163 21T77 108T46 242Q46 318 76 374T158 463T280 495Q329 495 368 479T434 431T476 356T491 257Q491 241 482 234T456 226H108V279H437L421 266Q421 320 405 357T359 415T282 435Q231 435 196 412T142
347T124 250V244Q124 152 168 104T295 56Q329 56 362 65T428 95Q442 104 453 104T472 97T481 81T480 60T462 41Q429 17 384 4T295 -9ZM248 556L147 712Q139 724 141 735T151 754T170 764T192 763T210 745L294 582Q300 570 297 561T284 548T265 544T248 556Z" />
<glyph unicode="&#xe9;" horiz-adv-x="532" d="M295 -9Q218 -9 163 21T77 108T46 242Q46 318 76 374T158 463T280 495Q329 495 368 479T434 431T476 356T491 257Q491 241 482 234T456 226H108V279H437L421 266Q421 320 405 357T359 415T282 435Q231 435 196 412T142
347T124 250V244Q124 152 168 104T295 56Q329 56 362 65T428 95Q442 104 453 104T472 97T481 81T480 60T462 41Q429 17 384 4T295 -9ZM313 556Q306 546 296 545T277 547T264 561T266 582L350 745Q357 759 368 763T390 765T410 754T419 735T413 712L313 556Z" />
<glyph unicode="&#xea;" horiz-adv-x="532" d="M295 -9Q218 -9 163 21T77 108T46 242Q46 318 76 374T158 463T280 495Q329 495 368 479T434 431T476 356T491 257Q491 241 482 234T456 226H108V279H437L421 266Q421 320 405 357T359 415T282 435Q231 435 196 412T142
347T124 250V244Q124 152 168 104T295 56Q329 56 362 65T428 95Q442 104 453 104T472 97T481 81T480 60T462 41Q429 17 384 4T295 -9ZM412 582Q418 570 415 561T403 547T385 544T369 556L280 699L191 556Q185 546 176 545T158 547T146 560T148 582L231 734Q240
750 252 758T280 766Q296 766 308 758T329 734L412 582Z" />
<glyph unicode="&#xeb;" horiz-adv-x="532" d="M295 -9Q218 -9 163 21T77 108T46 242Q46 318 76 374T158 463T280 495Q329 495 368 479T434 431T476 356T491 257Q491 241 482 234T456 226H108V279H437L421 266Q421 320 405 357T359 415T282 435Q231 435 196 412T142
347T124 250V244Q124 152 168 104T295 56Q329 56 362 65T428 95Q442 104 453 104T472 97T481 81T480 60T462 41Q429 17 384 4T295 -9ZM368 606Q345 606 333 618T320 652Q320 674 332 686T368 699Q390 699 402 687T414 652Q414 630 402 618T368 606ZM193 606Q171
606 159 618T146 652Q146 674 158 686T193 699Q216 699 228 687T240 652Q240 630 228 618T193 606Z" />
<glyph unicode="&#xec;" horiz-adv-x="232" d="M116 -5Q96 -5 86 6T76 39V448Q76 469 86 480T116 491Q135 491 146 480T157 448V39Q157 18 147 7T116 -5ZM84 556L-17 712Q-25 724 -23 735T-13 754T6 764T28 763T46 745L130 582Q136 570 133 561T120 548T101 544T84 556Z" />
<glyph unicode="&#xed;" horiz-adv-x="232" d="M116 -5Q96 -5 86 6T76 39V448Q76 469 86 480T116 491Q135 491 146 480T157 448V39Q157 18 147 7T116 -5ZM149 556Q142 546 132 545T113 547T100 561T102 582L186 745Q193 759 204 763T226 765T246 754T255 735T249
712L149 556Z" />
<glyph unicode="&#xee;" horiz-adv-x="232" d="M116 -5Q96 -5 86 6T76 39V448Q76 469 86 480T116 491Q135 491 146 480T157 448V39Q157 18 147 7T116 -5ZM248 582Q254 570 251 561T239 547T221 544T205 556L116 699L27 556Q21 546 12 545T-6 547T-18 560T-16 582L67
734Q76 750 88 758T116 766Q132 766 144 758T165 734L248 582Z" />
<glyph unicode="&#xef;" horiz-adv-x="232" d="M116 -5Q96 -5 86 6T76 39V448Q76 469 86 480T116 491Q135 491 146 480T157 448V39Q157 18 147 7T116 -5ZM204 606Q181 606 169 618T156 652Q156 674 168 686T204 699Q226 699 238 687T250 652Q250 630 238 618T204
606ZM29 606Q7 606 -5 618T-18 652Q-18 674 -6 686T29 699Q52 699 64 687T76 652Q76 630 64 618T29 606Z" />
<glyph unicode="&#xf0;" d="M276 -9Q207 -9 155 20T75 101T46 223Q46 292 74 343T154 423T272 452Q321 452 359 436T422 386T459 300H436Q437 399 397 473T288 593H310L159 527Q143 521 132 525T116 539T115 560T137 579L248 627L250 616Q230 626 209 634T165
650Q147 655 141 666T138 688T152 705T181 706Q221 696 254 681T319 648L296 649L420 703Q435 709 446 705T463 691T464 670T444 652L351 611L354 623Q407 585 442 534T495 420T514 284Q514 213 499 159T453 67T378 10T276 -9ZM277 57Q324 57 358 77T409 134T427
223Q427 299 388 343T277 387Q232 387 198 367T146 311T128 223Q128 144 167 101T277 57Z" />
<glyph unicode="&#xf1;" horiz-adv-x="568" d="M116 -7Q96 -7 86 4T76 35V452Q76 472 86 482T115 493Q134 493 144 483T155 452V366L144 378Q165 436 212 465T322 495Q380 495 418 474T476 411T495 303V35Q495 15 485 4T455 -7Q435 -7 425 4T414 35V298Q414 366
388 397T303 429Q236 429 197 388T157 277V35Q157 -7 116 -7ZM128 587Q118 587 112 594T108 615Q112 639 120 659T141 694T171 717T212 726Q237 726 255 715T290 689T323 662T357 650Q380 650 395 667T416 714Q418 724 424 728T442 732Q452 732 458 725T462 704Q457
673 444 648T409 608T358 593Q333 593 315 604T280 631T247 657T213 669Q190 669 175 652T154 605Q152 596 146 591T128 587Z" />
<glyph unicode="&#xf2;" horiz-adv-x="556" d="M278 -9Q207 -9 155 22T75 109T46 243Q46 301 62 347T109 427T182 477T278 495Q349 495 401 464T481 377T510 243Q510 185 494 139T447 60T374 9T278 -9ZM278 56Q323 56 357 78T409 142T428 243Q428 334 388 382T278
430Q232 430 199 409T147 346T128 243Q128 153 169 105T278 56ZM246 556L145 712Q137 724 139 735T149 754T168 764T190 763T208 745L292 582Q298 570 295 561T282 548T263 544T246 556Z" />
<glyph unicode="&#xf3;" horiz-adv-x="556" d="M278 -9Q207 -9 155 22T75 109T46 243Q46 301 62 347T109 427T182 477T278 495Q349 495 401 464T481 377T510 243Q510 185 494 139T447 60T374 9T278 -9ZM278 56Q323 56 357 78T409 142T428 243Q428 334 388 382T278
430Q232 430 199 409T147 346T128 243Q128 153 169 105T278 56ZM311 556Q304 546 294 545T275 547T262 561T264 582L348 745Q355 759 366 763T388 765T408 754T417 735T411 712L311 556Z" />
<glyph unicode="&#xf4;" horiz-adv-x="556" d="M278 -9Q207 -9 155 22T75 109T46 243Q46 301 62 347T109 427T182 477T278 495Q349 495 401 464T481 377T510 243Q510 185 494 139T447 60T374 9T278 -9ZM278 56Q323 56 357 78T409 142T428 243Q428 334 388 382T278
430Q232 430 199 409T147 346T128 243Q128 153 169 105T278 56ZM410 582Q416 570 413 561T401 547T383 544T367 556L278 699L189 556Q183 546 174 545T156 547T144 560T146 582L229 734Q238 750 250 758T278 766Q294 766 306 758T327 734L410 582Z" />
<glyph unicode="&#xf5;" horiz-adv-x="556" d="M278 -9Q207 -9 155 22T75 109T46 243Q46 301 62 347T109 427T182 477T278 495Q349 495 401 464T481 377T510 243Q510 185 494 139T447 60T374 9T278 -9ZM278 56Q323 56 357 78T409 142T428 243Q428 334 388 382T278
430Q232 430 199 409T147 346T128 243Q128 153 169 105T278 56ZM121 587Q111 587 105 594T101 615Q105 639 113 659T134 694T164 717T205 726Q230 726 248 715T283 689T316 662T350 650Q373 650 388 667T409 714Q411 724 417 728T435 732Q445 732 451 725T455 704Q450
673 437 648T402 608T351 593Q326 593 308 604T273 631T240 657T206 669Q183 669 168 652T147 605Q145 596 139 591T121 587Z" />
<glyph unicode="&#xf6;" horiz-adv-x="556" d="M278 -9Q207 -9 155 22T75 109T46 243Q46 301 62 347T109 427T182 477T278 495Q349 495 401 464T481 377T510 243Q510 185 494 139T447 60T374 9T278 -9ZM278 56Q323 56 357 78T409 142T428 243Q428 334 388 382T278
430Q232 430 199 409T147 346T128 243Q128 153 169 105T278 56ZM366 606Q343 606 331 618T318 652Q318 674 330 686T366 699Q388 699 400 687T412 652Q412 630 400 618T366 606ZM191 606Q169 606 157 618T144 652Q144 674 156 686T191 699Q214 699 226 687T238
652Q238 630 226 618T191 606Z" />
<glyph unicode="&#xf7;" horiz-adv-x="600" d="M81 256Q66 256 58 264T49 287Q49 302 57 310T81 318H519Q534 318 542 310T551 287Q551 272 543 264T519 256H81ZM294 43Q273 43 262 55T250 88Q250 109 261 120T294 132Q315 132 326 121T338 88Q338 67 327 55T294
43ZM294 441Q273 441 262 453T250 486Q250 507 261 518T294 530Q315 530 326 519T338 486Q338 465 327 453T294 441Z" />
<glyph unicode="&#xf8;" horiz-adv-x="556" d="M278 -9Q207 -9 155 22T75 109T46 243Q46 301 62 347T109 427T182 477T278 495Q349 495 401 464T481 377T510 243Q510 185 494 139T447 60T374 9T278 -9ZM278 56Q323 56 357 78T409 142T428 243Q428 334 388 382T278
430Q232 430 199 409T147 346T128 243Q128 153 169 105T278 56ZM152 -30Q145 -42 134 -44T114 -41T101 -24T105 1L404 517Q412 529 423 530T443 527T456 510T452 486L152 -30Z" />
<glyph unicode="&#xf9;" horiz-adv-x="561" d="M248 -9Q189 -9 151 12T93 77T73 184V452Q73 473 83 483T113 493Q133 493 143 483T154 452V185Q154 121 180 90T264 58Q326 58 365 100T404 210V452Q404 473 414 483T445 493Q464 493 474 483T485 452V35Q485 -7
446 -7Q427 -7 417 4T406 35V126L419 112Q399 53 354 22T248 -9ZM249 557L148 713Q140 725 142 736T152 755T171 765T193 764T211 746L295 583Q301 571 298 562T285 549T266 545T249 557Z" />
<glyph unicode="&#xfa;" horiz-adv-x="561" d="M248 -9Q189 -9 151 12T93 77T73 184V452Q73 473 83 483T113 493Q133 493 143 483T154 452V185Q154 121 180 90T264 58Q326 58 365 100T404 210V452Q404 473 414 483T445 493Q464 493 474 483T485 452V35Q485 -7
446 -7Q427 -7 417 4T406 35V126L419 112Q399 53 354 22T248 -9ZM314 557Q307 547 297 546T278 548T265 562T267 583L351 746Q358 760 369 764T391 766T411 755T420 736T414 713L314 557Z" />
<glyph unicode="&#xfb;" horiz-adv-x="561" d="M248 -9Q189 -9 151 12T93 77T73 184V452Q73 473 83 483T113 493Q133 493 143 483T154 452V185Q154 121 180 90T264 58Q326 58 365 100T404 210V452Q404 473 414 483T445 493Q464 493 474 483T485 452V35Q485 -7
446 -7Q427 -7 417 4T406 35V126L419 112Q399 53 354 22T248 -9ZM413 583Q419 571 416 562T404 548T386 545T370 557L281 700L192 557Q186 547 177 546T159 548T147 561T149 583L232 735Q241 751 253 759T281 767Q297 767 309 759T330 735L413 583Z" />
<glyph unicode="&#xfc;" horiz-adv-x="561" d="M248 -9Q189 -9 151 12T93 77T73 184V452Q73 473 83 483T113 493Q133 493 143 483T154 452V185Q154 121 180 90T264 58Q326 58 365 100T404 210V452Q404 473 414 483T445 493Q464 493 474 483T485 452V35Q485 -7
446 -7Q427 -7 417 4T406 35V126L419 112Q399 53 354 22T248 -9ZM369 607Q346 607 334 619T321 653Q321 675 333 687T369 700Q391 700 403 688T415 653Q415 631 403 619T369 607ZM194 607Q172 607 160 619T147 653Q147 675 159 687T194 700Q217 700 229 688T241
653Q241 631 229 619T194 607Z" />
<glyph unicode="&#xfd;" horiz-adv-x="514" d="M184 -187Q169 -187 160 -179T150 -158T154 -130L223 25V-10L31 436Q25 451 27 464T39 485T67 493Q83 493 92 486T108 461L272 59H245L411 461Q419 479 428 486T454 493Q470 493 478 485T488 465T484 437L228 -155Q220
-173 211 -180T184 -187ZM291 556Q284 546 274 545T255 547T242 561T244 582L328 745Q335 759 346 763T368 765T388 754T397 735T391 712L291 556Z" />
<glyph unicode="&#xfe;" horiz-adv-x="583" d="M116 -187Q96 -187 86 -177T76 -146V671Q76 691 86 701T116 712Q135 712 146 702T157 671V371H145Q161 428 208 461T322 495Q387 495 435 465T510 378T537 243Q537 166 511 110T436 22T322 -9Q256 -9 209 24T145
114H157V-146Q157 -166 146 -176T116 -187ZM305 56Q351 56 384 78T436 142T455 243Q455 334 415 382T305 430Q260 430 226 409T174 346T155 243Q155 153 196 105T305 56Z" />
<glyph unicode="&#xff;" horiz-adv-x="514" d="M184 -187Q169 -187 160 -179T150 -158T154 -130L223 25V-10L31 436Q25 451 27 464T39 485T67 493Q83 493 92 486T108 461L272 59H245L411 461Q419 479 428 486T454 493Q470 493 478 485T488 465T484 437L228 -155Q220
-173 211 -180T184 -187ZM346 606Q323 606 311 618T298 652Q298 674 310 686T346 699Q368 699 380 687T392 652Q392 630 380 618T346 606ZM171 606Q149 606 137 618T124 652Q124 674 136 686T171 699Q194 699 206 687T218 652Q218 630 206 618T171 606Z" />
<glyph unicode="&#x2013;" horiz-adv-x="500" d="M22 240Q10 240 2 248T-7 267Q-7 278 1 285T22 293H478Q490 293 498 286T507 267Q507 256 499 248T478 240H22Z" />
<glyph unicode="&#x2014;" horiz-adv-x="1000" d="M22 240Q10 240 2 248T-7 267Q-7 278 1 285T22 293H978Q990 293 998 286T1007 267Q1007 256 999 248T978 240H22Z" />
<glyph unicode="&#x2018;" horiz-adv-x="228" d="M105 692Q115 705 125 706T143 703T152 686T143 662Q127 641 121 620T114 580L111 600Q137 600 153 586T169 546Q169 522 154 507T115 491Q89 491 75 508T60 559Q60 580 63 602T77 648T105 692Z" />
<glyph unicode="&#x2019;" horiz-adv-x="228" d="M124 508Q114 495 103 494T84 497T76 514T85 538Q101 559 107 580T113 619L117 599Q91 599 76 614T60 654Q60 679 74 694T113 709Q139 709 154 692T169 641Q169 620 165 598T151 552T124 508Z" />
<glyph unicode="&#x201a;" horiz-adv-x="228" d="M124 -95Q114 -108 103 -110T84 -106T76 -89T85 -65Q101 -44 107 -23T113 17L117 -4Q91 -4 76 11T60 51Q60 75 74 90T113 106Q139 106 154 89T169 38Q169 17 165 -5T151 -51T124 -95Z" />
<glyph unicode="&#x201c;" horiz-adv-x="394" d="M105 692Q115 705 125 706T143 703T152 686T143 662Q127 641 121 620T114 580L111 600Q137 600 153 586T169 546Q169 522 154 507T115 491Q89 491 75 508T60 559Q60 580 63 602T77 648T105 692ZM271 692Q281 705
291 706T309 703T318 686T309 662Q293 641 287 620T280 580L277 600Q303 600 319 586T335 546Q335 522 320 507T281 491Q255 491 241 508T226 559Q226 580 229 602T243 648T271 692Z" />
<glyph unicode="&#x201d;" horiz-adv-x="394" d="M124 508Q114 495 103 494T84 497T76 514T85 538Q101 559 107 580T113 619L117 599Q91 599 76 614T60 654Q60 679 74 694T113 709Q139 709 154 692T169 641Q169 620 165 598T151 552T124 508ZM290 508Q280 495
269 494T250 497T242 514T251 538Q267 559 273 580T279 619L283 599Q257 599 242 614T226 654Q226 679 240 694T279 709Q305 709 320 692T335 641Q335 620 331 598T317 552T290 508Z" />
<glyph unicode="&#x201e;" horiz-adv-x="394" d="M124 -95Q114 -108 103 -110T84 -106T76 -89T85 -65Q101 -44 107 -23T113 17L117 -4Q91 -4 76 11T60 51Q60 75 74 90T113 106Q139 106 154 89T169 38Q169 17 165 -5T151 -51T124 -95ZM290 -95Q280 -108 269 -110T250
-106T242 -89T251 -65Q267 -44 273 -23T279 17L283 -4Q257 -4 242 11T226 51Q226 75 240 90T279 106Q305 106 320 89T335 38Q335 17 331 -5T317 -51T290 -95Z" />
<glyph unicode="&#x2022;" horiz-adv-x="524" d="M262 88Q213 88 172 111T106 175T81 265Q81 311 104 351T169 417T262 443Q310 443 351 420T418 357T443 265Q443 216 419 176T353 112T262 88Z" />
<glyph unicode="&#x2039;" horiz-adv-x="260" d="M187 89Q176 84 165 87T147 102L65 238Q57 252 57 265T65 293L146 428Q153 440 164 443T186 442Q200 436 204 423T201 395L136 265L201 136Q208 121 205 108T187 89Z" />
<glyph unicode="&#x203a;" horiz-adv-x="260" d="M73 89Q59 94 56 107T59 136L124 265L59 395Q53 410 57 423T74 442Q86 447 97 444T115 428L195 293Q204 279 204 266T195 238L113 102Q107 91 96 88T73 89Z" />
</font>
</defs>
</svg>
